Нищий из Беверли Хиллз / Без гроша в Беверли Хиллз / Бродяга в Беверли Хиллз / Down and Out in Beverly Hills (Пол Мазурски / Paul Mazursky) [1986, США, комедия, WEB-DLRip] Dub (РТР) 

Цитировать
Нищий из Беверли Хиллз / Без гроша в Беверли Хиллз / Бродяга в Беверли Хиллз / Down and Out in Beverly Hills
Страна: США
Жанр: комедия
Год выпуска: 1986
Продолжительность: 01:43:20
Перевод: Профессиональный (дублированный) РТР
Субтитры: нет
Оригинальная аудиодорожка: нет
Режиссер: Пол Мазурски / Paul Mazursky
В ролях: Ник Нолти, Бетт Мидлер, Ричард Дрейфусс, Литтл Ричард, Трейси Нельсон, Элизабет Пенья
Описание: Иногда богатые тоже смеются. Жизнь миллионера Дэйва Уайтмэна похожа на сумасшедший дом: его жена занята только йогой и аэробикой, сын вступил в критический возраст, а дочь страдает от систематического переедания.
Но ироничной судьбе этого показалось мало: однажды Дэйв выловил в своём роскошном бассейне несчастного бродягу и взял его к себе в дом. Однако у этого нищего вдруг обнаружилась такая богатая фантазия и жажда деятельности, что через некоторое время семью Уайтмэнов стало просто не узнать!
Доп. информация:
Видеоряд взят с другого трекера.
За звуковую дорожку с дубляжом телеканала РТР 1994 года большое спасибо RoxMarty.
За синхронизацию звуковой дорожки огромная благодарность JUSTKANT.
Дубляж к этому фильму на трекере впервые!
Роли дублировали: Владимир Антоник, Вадим Андреев, Ирина Акулова, Дмитрий Полонский, Борис Шувалов, Елена Соловьёва, Галатея Казакова и Александр Белявский.
В эпизоде 00:22:43 - 00:23:00 есть небольшая вставка с переводом ТВЦ.
Сэмпл: http://www.sendspace.com/file/pl2rss
Качество видео: WEB-DLRip
Формат видео: AVI
Видео: 704x384, 23.976 fps, MPEG-4 Visual, 1823 Kbps, XviD 73
Аудио: 48 KHz, AC3, 2 ch, 192 Kbps

MediaInfo

General
Complete name : C:\Users\Нищий из Беверли-Хиллз.avi
Format : AVI
Format/Info : Audio Video Interleave
File size : 1.46 GiB
Duration : 1h 43mn
Overall bit rate : 2 024 Kbps
Writing application : VirtualDubMod 1.5.10.2 (build 2540/release)
Writing library : VirtualDubMod build 2540/release
Video
ID : 0
Format : MPEG-4 Visual
Format profile : Advanced Simple@L5
Format settings, BVOP : 1
Format settings, QPel : No
Format settings, GMC : No warppoints
Format settings, Matrix : Custom
Codec ID : XVID
Codec ID/Hint : XviD
Duration : 1h 43mn
Bit rate : 1 823 Kbps
Width : 704 pixels
Height : 384 pixels
Display aspect ratio : 1.85:1
Frame rate : 23.976 fps
Color space : YUV
Chroma subsampling : 4:2:0
Bit depth : 8 bits
Scan type : Progressive
Compression mode : Lossy
Bits/(Pixel*Frame) : 0.281
Stream size : 1.32 GiB (90%)
Writing library : XviD 73
Audio
ID : 1
Format : AC-3
Format/Info : Audio Coding 3
Mode extension : CM (complete main)
Format settings, Endianness : Big
Codec ID : 2000
Duration : 1h 43mn
Bit rate mode : Constant
Bit rate : 192 Kbps
Channel(s) : 2 channels
Channel positions : Front: L R
Sampling rate : 48.0 KHz
Bit depth : 16 bits
Compression mode : Lossy
Stream size : 142 MiB (9%)
Alignment : Split accross interleaves
Interleave, duration : 42 ms (1.00 video frame)
Interleave, preload duration : 500 ms

Скриншоты

Вы не можете начинать темы
Вы не можете отвечать на сообщения
Вы не можете редактировать свои сообщения
Вы не можете удалять свои сообщения
Вы не можете голосовать в опросах
Вы не можете прикреплять файлы к сообщениям
Вы можете скачивать файлы
!ВНИМАНИЕ!

Сайт не предоставляет электронные версии произведений, а занимается лишь коллекционированием и каталогизацией ссылок, присылаемых и публикуемых на форуме нашими читателями. Если вы являетесь правообладателем какого-либо представленного материала и не желаете, чтобы ссылка на него находилась в нашем каталоге, свяжитесь с нами, и мы незамедлительно удалим ее. Файлы для обмена на трекере предоставлены пользователями сайта, и администрация не несет ответственности за их содержание. Просьба не заливать файлы, защищенные авторскими правами, а также файлы нелегального содержания!

Искали программы, игры, дополнения, музыка mp3, аниме, аудио книги, журналы? Добро пожаловать на свободный торрент трекер Torrents, у нас можно скачать бесплатно, без смс и регистрации и прочих ограничений лучшие, отборные сборки программ, игр. Скачать торрентом не составит труда даже не опытному пользователю. Раздачи ежедневно обновляются, только лучшие и качественные раздачи, подробные описания и скриншоты. Огромная коллекция программ для работы со звуком, графикой, дизайном, а так же множество плагинов и инструментов к ним с подробной инструкцией и рекомендациями. Прошивки для навигаторов, карты. Разнообразные игры, для Windows, Linux. В коллекцие есть и старые игры любых жанров, Rpg, Action, Shooter, strategy Множество дополнений, модификаций, сценариев для популярных игр в жанре экш, рпг, гонки, стратегии, логические игры. Множество аддонов и сценариев для Microsoft Flight Simulator Большая коллекция книг, учебников. Если нет возможности купить печатное издание - смело скачивайте цифровую версию книги или, быть может, журнала. Не любите читать - можно загрузить бесплатно аудикнигу. Для веб дизайнеров и программистов так же найдется множество специализированного софта, таких как: редакторы с подсветкой, среды программирования, компоненты, системы управления базами данных, разнообразные скрипты и шаблоны. Не так давно у нас появился материал для автолюбителей и владельцев мото - оригинальные и неоригинальные каталоги запчастей, книги и журналы по ремонту и обслуживанию, видеоуроки, статьи по чип тюнингу, прошивкам. Процедура получения контента элементарная, достаточно просто скачать торрент файл и добавить его в загрузку в вашем торрент клиенте. Если у вас нет специального торрент клиента, вы можете его скачать у нас.