Бермудский треугольник / Trójkat bermudzki (Войцех Вуйчик / Wojciech Wójcik) [1987, Польша (ПНР), триллер, драма, криминал, экранизация, HDTVRip] Original Pol + Sub Rus (smit009) 

Цитировать
Бермудский треугольник / Trójkat bermudzki Страна: Польша (ПНР)
Жанр: триллер, драма, криминал, экранизация
Год выпуска: 1987
Продолжительность: 01:30:26
Перевод: Субтитры smit009
Субтитры: русские
Оригинальная аудиодорожка: польский
Режиссер: Войцех Вуйчик / Wojciech Wójcik
В ролях: Мариан Кочиняк, Ян Пешек, Леонард Петрашак, Гражина Треля, Барбара Солтысик, Мария Пробош, Ян Янковский, Марек Левандовский, Дарюш Сятковский, Славомир Мачеевский, Пётр Деймек, Януш Дзюбиньский, Мечислав Яновский, Брунон Буковский, Януш Юзефович, Яцек Лучак, Малгожата Парузель, Наталия Копчиньская, Влодзимеж Тымпальский
Описание: По мотивам романа Джонатана Трейча "Вечер на Оук Лейн". Хенрик, богатый краковский врач, выдаёт замуж дочь. К нему приходит наркоман Збышек, прежняя симпатия Моники, и за несколько тысяч долларов предлагает кассету с порнографическим фильмом с участием его дочери. Доктор, уверенный, что покупает единственный экземпляр, выкладывает требуемую сумму... Ярек, хозяин автосервиса в Гданьске, рассчитывает на богатое наследство, чтобы расплатиться с долгами, он заядлый игрок на тотализаторе. Единственным препятствием на его пути является двоюродный брат Роман, с которым невозможно договориться... Людвик, адвокат из Лодзи, был неоправдованно осуждён за наезд на пешехода по вине его жены Барбары и её любовника... Эти трое мужчин, живущие в разных городах, давнишние друзья, занимались альпинизмом. Они решают встретиться, чтобы помочь друг другу в решении этих проблем. Криминал —вот вынужденный способ решения таких проблем...
Доп. информация: Cобственный рип. Перевод мой, с украинского языка (на основе украинских субтитров (перевода) ivan vyrvyvuho).
Сэмпл: http://multi-up.com/1165303
Качество видео: HDTVRip
Формат видео: AVI
Видео: XviD, 720x400 (16:9), 25.000 fps, 1006 kbps avg
Аудио: Polska 48 kHz, MPEG Layer 3, 2 ch, 128.00 kbps avg
Формат субтитров: softsub (SRT)

MediaInfo

General
Complete name : E:\Trojkat bermudzki (1988)\Trojkat.bermudzki.1988.HDTVRip.Rus.avi
Format : AVI
Format/Info : Audio Video Interleave
File size : 740 MiB
Duration : 1 h 30 min
Overall bit rate : 1 144 kb/s
Writing application : VirtualDubMod 1.5.10.3 | www.virtualdub-fr.org || (build 2550/release)
Writing library : VirtualDubMod build 2550/release
Video
ID : 0
Format : MPEG-4 Visual
Format profile : Advanced Simple@L5
Format settings, BVOP : 1
Format settings, QPel : No
Format settings, GMC : No warppoints
Format settings, Matrix : Custom
Codec ID : XVID
Codec ID/Hint : XviD
Duration : 1 h 30 min
Bit rate : 1 007 kb/s
Width : 720 pixels
Height : 400 pixels
Display aspect ratio : 16:9
Frame rate : 25.000 FPS
Color space : YUV
Chroma subsampling : 4:2:0
Bit depth : 8 bits
Scan type : Progressive
Compression mode : Lossy
Bits/(Pixel*Frame) : 0.140
Stream size : 651 MiB (88%)
Writing library : XviD 73
Audio
ID : 1
Format : MPEG Audio
Format version : Version 1
Format profile : Layer 3
Codec ID : 55
Codec ID/Hint : MP3
Duration : 1 h 30 min
Bit rate mode : Constant
Bit rate : 128 kb/s
Channel(s) : 2 channels
Sampling rate : 44.1 kHz
Compression mode : Lossy
Stream size : 82.8 MiB (11%)
Alignment : Split accross interleaves
Interleave, duration : 40 ms (1.00 video frame)
Interleave, preload duratio : 500 ms
Writing library : LAME3.99r
Encoding settings : -m s -V 4 -q 2 -lowpass 17 -b 128

Скриншоты

Фрагмент субтитров

1
00:00:22,980 --> 00:00:27,590
БЕРМУДСКИЙ ТРЕУГОЛЬНИК
2
00:00:31,707 --> 00:00:37,973
по мотивам романа Джонатана Трейча
"Вечер с Оук Лейн"
3
00:00:40,059 --> 00:00:46,354
в главных ролях: МАРИАН КОЧИНЯК,
ЯН ПЕШЕК, ЛЕОНАРД ПЕТРАШАК
4
00:01:32,366 --> 00:01:36,054
режиссер
ВОЙЦЕХ ВУЙЦИК
5
00:01:45,700 --> 00:01:48,500
Краков, июнь 1986 года
6
00:02:46,500 --> 00:02:48,000
Это была копия.
7
00:02:49,100 --> 00:02:54,400
А есть еще оригинал. У нас мало времени.
Вы же приехали только на свадьбу дочери.
8
00:02:54,700 --> 00:02:57,500
Так вы заплатите,
или сделать невесте рекламу?
9
00:03:08,000 --> 00:03:10,600
Заплатишь вдвойне, или свадьбы не быть!
10
00:03:13,340 --> 00:03:15,600
Куда это поставить, пан доктор?
11
00:03:16,380 --> 00:03:18,500
Пан Юзек, поставьте в кухне!
12
00:03:31,040 --> 00:03:33,800
На наркоту деньги нужны?
13
00:03:34,700 --> 00:03:36,000
А, что?
14
00:03:38,080 --> 00:03:41,000
Это самая дорогая кассета, которую я видел в жизни.
15
00:03:41,120 --> 00:03:45,400
Пан доктор, я знаю сколько
платит минздрав врачам в Африке.
16
00:03:45,920 --> 00:03:50,700
Вы там уже давно, и я не хочу вас пустить по миру.
17
00:03:51,040 --> 00:03:57,500
Несколько штук баксов - это немного
за доброе имя и счастье дочери.
18
00:03:58,480 --> 00:04:00,400
Я должен был бы тебя убить.
19
00:04:01,000 --> 00:04:07,400
Я перестраховался. Весь Краков вместе
с зятем увидели бы это. Ну, как?
20
00:04:09,440 --> 00:04:11,600
У меня нет другого выхода, негодяй.
Вы не можете начинать темы
Вы не можете отвечать на сообщения
Вы не можете редактировать свои сообщения
Вы не можете удалять свои сообщения
Вы не можете голосовать в опросах
Вы не можете прикреплять файлы к сообщениям
Вы можете скачивать файлы
!ВНИМАНИЕ!

Сайт не предоставляет электронные версии произведений, а занимается лишь коллекционированием и каталогизацией ссылок, присылаемых и публикуемых на форуме нашими читателями. Если вы являетесь правообладателем какого-либо представленного материала и не желаете, чтобы ссылка на него находилась в нашем каталоге, свяжитесь с нами, и мы незамедлительно удалим ее. Файлы для обмена на трекере предоставлены пользователями сайта, и администрация не несет ответственности за их содержание. Просьба не заливать файлы, защищенные авторскими правами, а также файлы нелегального содержания!

Искали программы, игры, дополнения, музыка mp3, аниме, аудио книги, журналы? Добро пожаловать на свободный торрент трекер Torrents, у нас можно скачать бесплатно, без смс и регистрации и прочих ограничений лучшие, отборные сборки программ, игр. Скачать торрентом не составит труда даже не опытному пользователю. Раздачи ежедневно обновляются, только лучшие и качественные раздачи, подробные описания и скриншоты. Огромная коллекция программ для работы со звуком, графикой, дизайном, а так же множество плагинов и инструментов к ним с подробной инструкцией и рекомендациями. Прошивки для навигаторов, карты. Разнообразные игры, для Windows, Linux. В коллекцие есть и старые игры любых жанров, Rpg, Action, Shooter, strategy Множество дополнений, модификаций, сценариев для популярных игр в жанре экш, рпг, гонки, стратегии, логические игры. Множество аддонов и сценариев для Microsoft Flight Simulator Большая коллекция книг, учебников. Если нет возможности купить печатное издание - смело скачивайте цифровую версию книги или, быть может, журнала. Не любите читать - можно загрузить бесплатно аудикнигу. Для веб дизайнеров и программистов так же найдется множество специализированного софта, таких как: редакторы с подсветкой, среды программирования, компоненты, системы управления базами данных, разнообразные скрипты и шаблоны. Не так давно у нас появился материал для автолюбителей и владельцев мото - оригинальные и неоригинальные каталоги запчастей, книги и журналы по ремонту и обслуживанию, видеоуроки, статьи по чип тюнингу, прошивкам. Процедура получения контента элементарная, достаточно просто скачать торрент файл и добавить его в загрузку в вашем торрент клиенте. Если у вас нет специального торрент клиента, вы можете его скачать у нас.