Сфинкс / Sphinx (Франклин Дж. Шаффнер / Franklin J. Schaffner) [1981, США, Нидерланды, триллер, детектив, приключения, DVDRip] MVO (ОРТ) 

Цитировать
Сфинкс / Sphinx
Страна: США, Нидерланды
Жанр: триллер, детектив, приключения
Год выпуска: 1981
Продолжительность: 01:57:38
Перевод: Профессиональный (многоголосый закадровый) / Студия «Эй Би Видео» по заказу ОРТ
Субтитры: нет
Оригинальная аудиодорожка: нет
Режиссер: Франклин Дж. Шаффнер / Franklin J. Schaffner
В ролях: Лесли-Энн Даун (Lesley-Anne Down / Erica Baron), Фрэнк Ланджелла (Frank Langella / Akmed Khazzan), Морис Роне (Maurice Ronet / Yvon Mageot), Джон Гилгуд (John Gielgud (в титрах – Sir John Gielgud) / Abdu-Hamdi), Вик Тэблиан (Vic Tablian / Khalifa), Мартин Бенсон (Martin Benson / Muhammed), Джон Рис-Дэвис (John Rhys-Davies / Stephanos Markoulis), Надим Савалха (Nadim Sawalha / Gamal), Тутте Лемков (Tutte Lemkow / Tewfik), Саид Джаффри (Saeed Jaffrey / Selim), Эйлин Вэй (Eileen Way / Aida), Уильям Хуткинс (William Нootkins / Don), Марк Кингстон (Mark Kingston / Carter), Джеймс Коссинс (James Cossins / Lord Carnarvon), Виктория Теннант (Victoria Tennant / Lady Carnarvon), Бехруз Восуги (Behrouz Vossoughi / Menephta), Кеворк Маликян (Kevork Malikyan / Bell Boy) и другие.
Описание: Молодой учёный-египтолог Эрика Бэрон приезжает в Египет с целью собрать материалы об архитекторе Минефте, служившему фараону Сэти I. Однако в путешествии ей пришлось столкнуться с гораздо большим, чем она предполагала, – контрабандой египетских древностей, убийствами, предательством, проклятием фараонов и, конечно, любовью…
Доп. информация: За исходник для видео спасибо ghoulie. За аудиодорожку спасибо Hel_ka67.

Сэмпл: Здесь
Качество видео: DVDRip (Исходник DVD5)
Формат видео: AVI
Видео: XviD, 704x304 (2,35:1) / 23,976 fps / 1571 kbps / 0,306 bit/pixel
Аудио: Russian: AC3 2/0 (L, R) ch, 192 kbps, 48 kHz, 16 bit / многоголосый (ОРТ)

MediaInfo

Общее
Полное имя : F:\Папка для скачиваний в ruTracker.org\Sphinx.1981_DVDRip.MVO(OPT).avi
Формат : AVI
Формат/Информация : Audio Video Interleave
Размер файла : 1,46 Гбайт
Продолжительность : 1 ч. 57 м.
Общий поток : 1773 Кбит/сек
Программа кодирования : VirtualDubMod 1.5.10.2 (build 2540/release)
Библиотека кодирования : VirtualDubMod build 2540/release
Видео
Идентификатор : 0
Формат : MPEG-4 Visual
Профиль формата : Advanced Simple@L5
Параметр BVOP формата : 1
Параметр QPel формата : Нет
Параметр GMC формата : Без точки перехода
Параметр матрицы формата : Выборочная
Идентификатор кодека : XVID
Идентификатор кодека/Подсказка : XviD
Продолжительность : 1 ч. 57 м.
Битрейт : 1571 Кбит/сек
Ширина : 704 пикселя
Высота : 304 пикселя
Соотношение сторон : 2,35:1
Частота кадров : 23,976 кадра/сек
Цветовое пространство : YUV
Субдискретизация насыщенности : 4:2:0
Битовая глубина : 8 бит
Тип развёртки : Прогрессивная
Метод сжатия : С потерями
Бит/(Пиксели*Кадры) : 0.306
Размер потока : 1,29 Гбайт (89%)
Библиотека кодирования : XviD 1.2.1 (UTC 2008-12-04)
Аудио
Идентификатор : 1
Формат : AC-3
Формат/Информация : Audio Coding 3
Расширение режима : CM (complete main)
Параметр Endianness формата : Big
Идентификатор кодека : 2000
Продолжительность : 1 ч. 57 м.
Вид битрейта : Постоянный
Битрейт : 192 Кбит/сек
Каналы : 2 канала
Расположение каналов : Front: L R
Частота : 48,0 КГц
Битовая глубина : 16 бит
Метод сжатия : С потерями
Размер потока : 162 Мбайт (11%)
Выравнивание : Разделение по промежуткам
Продолжительность промежутка : 42 мс. (1,00 видеокадр)
Время предзагрузки промежутка : 500 мс.
Заголовок : MVO (ОРТ)

Скриншот c названием фильма

Скриншоты

Вы не можете начинать темы
Вы не можете отвечать на сообщения
Вы не можете редактировать свои сообщения
Вы не можете удалять свои сообщения
Вы не можете голосовать в опросах
Вы не можете прикреплять файлы к сообщениям
Вы можете скачивать файлы
!ВНИМАНИЕ!

Сайт не предоставляет электронные версии произведений, а занимается лишь коллекционированием и каталогизацией ссылок, присылаемых и публикуемых на форуме нашими читателями. Если вы являетесь правообладателем какого-либо представленного материала и не желаете, чтобы ссылка на него находилась в нашем каталоге, свяжитесь с нами, и мы незамедлительно удалим ее. Файлы для обмена на трекере предоставлены пользователями сайта, и администрация не несет ответственности за их содержание. Просьба не заливать файлы, защищенные авторскими правами, а также файлы нелегального содержания!

Искали программы, игры, дополнения, музыка mp3, аниме, аудио книги, журналы? Добро пожаловать на свободный торрент трекер Torrents, у нас можно скачать бесплатно, без смс и регистрации и прочих ограничений лучшие, отборные сборки программ, игр. Скачать торрентом не составит труда даже не опытному пользователю. Раздачи ежедневно обновляются, только лучшие и качественные раздачи, подробные описания и скриншоты. Огромная коллекция программ для работы со звуком, графикой, дизайном, а так же множество плагинов и инструментов к ним с подробной инструкцией и рекомендациями. Прошивки для навигаторов, карты. Разнообразные игры, для Windows, Linux. В коллекцие есть и старые игры любых жанров, Rpg, Action, Shooter, strategy Множество дополнений, модификаций, сценариев для популярных игр в жанре экш, рпг, гонки, стратегии, логические игры. Множество аддонов и сценариев для Microsoft Flight Simulator Большая коллекция книг, учебников. Если нет возможности купить печатное издание - смело скачивайте цифровую версию книги или, быть может, журнала. Не любите читать - можно загрузить бесплатно аудикнигу. Для веб дизайнеров и программистов так же найдется множество специализированного софта, таких как: редакторы с подсветкой, среды программирования, компоненты, системы управления базами данных, разнообразные скрипты и шаблоны. Не так давно у нас появился материал для автолюбителей и владельцев мото - оригинальные и неоригинальные каталоги запчастей, книги и журналы по ремонту и обслуживанию, видеоуроки, статьи по чип тюнингу, прошивкам. Процедура получения контента элементарная, достаточно просто скачать торрент файл и добавить его в загрузку в вашем торрент клиенте. Если у вас нет специального торрент клиента, вы можете его скачать у нас.