Мой шофер / My Chauffeur (Дэвид Биэрд / David Beaird) [1986, США, комедия, DVDRip] VO (Фильмэкспорт, В.Герасимов) 

Цитировать
Мой шофер / My Chauffeur
Страна: США
Жанр: комедия
Год выпуска: 1986
Продолжительность: 01:37:17
Перевод: Студийный (одноголосый закадровый) Фильмэкспорт, В.Герасимов
Субтитры: нет
Оригинальная аудиодорожка: нет
Режиссер: Дэвид Биэрд / David Beaird
В ролях: Дебора Формен, Сэм Дж. Джонс, Шон МакКлори, Ховард Хессеман, Э. Г. Маршалл, Пенн Джиллетт
Описание: Очаровательная и самоуверенная Кейси Мидоуз приходит в крупнейшую автомобильную компанию Лос-Анджелеса с целью работать шофёром. Для коллег-мужчин — это повод для скепсиса и насмешек, для владельцев фирмы — неожиданный и решительный шаг. И Кейси с лихвой превосходит даже самые смелые ожидания. За короткий срок она становится всеобщей любимицей. Неудовольствие выказывает лишь сын её босса, холёный и надменный Баттл, который не упускает случая отпустить колкость в её адрес. Надолго ли?..
Доп. информация:
Видеоряд взят из этой раздачи http://rutracker.org/forum/viewtopic.php?t=4915074, за которую благодарим Виталя_А.
Звуковая дорожка с кинотеатральным переводом Фильмэкспорт взята из релиза xfiles http://rutracker.org/forum/viewtopic.php?t=5437004, большое ему спасибо.
За синхронизацию звуковой дорожки огромная благодарность ale_x2008.
Сэмпл: http://www.sendspace.com/file/hpszda
Качество видео: DVDRip
Формат видео: AVI
Видео: 656x480, 23.976 fps, MPEG-4 Visual, 1941 Kbps, XviD 1.2.1
Аудио: 48 KHz, AC3, 2 ch (mono), 192 Kbps

MediaInfo

General
Complete name : J:\Готовые рипы 2\Мой шофёр (Герасимов).avi
Format : AVI
Format/Info : Audio Video Interleave
File size : 1.46 GiB
Duration : 1h 37mn
Overall bit rate : 2 142 Kbps
Writing application : VirtualDubMod 1.5.10.2 (build 2540/release)
Writing library : VirtualDubMod build 2540/release
Copyright : Vitalya_A
Video
ID : 0
Format : MPEG-4 Visual
Format profile : Advanced Simple@L5
Format settings, BVOP : 2
Format settings, QPel : No
Format settings, GMC : No warppoints
Format settings, Matrix : Default (MPEG)
Codec ID : XVID
Codec ID/Hint : XviD
Duration : 1h 37mn
Bit rate : 1 941 Kbps
Width : 656 pixels
Height : 480 pixels
Display aspect ratio : 4:3
Frame rate : 23.976 fps
Color space : YUV
Chroma subsampling : 4:2:0
Bit depth : 8 bits
Scan type : Progressive
Compression mode : Lossy
Bits/(Pixel*Frame) : 0.257
Stream size : 1.32 GiB (91%)
Writing library : XviD 1.2.1 (UTC 2008-12-04)
Audio
ID : 1
Format : AC-3
Format/Info : Audio Coding 3
Mode extension : CM (complete main)
Format settings, Endianness : Big
Codec ID : 2000
Duration : 1h 37mn
Bit rate mode : Constant
Bit rate : 192 Kbps
Channel(s) : 2 channels
Channel positions : Front: L R
Sampling rate : 48.0 KHz
Bit depth : 16 bits
Compression mode : Lossy
Stream size : 134 MiB (9%)
Alignment : Split accross interleaves
Interleave, duration : 42 ms (1.00 video frame)
Interleave, preload duration : 500 ms

Скриншоты

Вы не можете начинать темы
Вы не можете отвечать на сообщения
Вы не можете редактировать свои сообщения
Вы не можете удалять свои сообщения
Вы не можете голосовать в опросах
Вы не можете прикреплять файлы к сообщениям
Вы можете скачивать файлы
!ВНИМАНИЕ!

Сайт не предоставляет электронные версии произведений, а занимается лишь коллекционированием и каталогизацией ссылок, присылаемых и публикуемых на форуме нашими читателями. Если вы являетесь правообладателем какого-либо представленного материала и не желаете, чтобы ссылка на него находилась в нашем каталоге, свяжитесь с нами, и мы незамедлительно удалим ее. Файлы для обмена на трекере предоставлены пользователями сайта, и администрация не несет ответственности за их содержание. Просьба не заливать файлы, защищенные авторскими правами, а также файлы нелегального содержания!

Искали программы, игры, дополнения, музыка mp3, аниме, аудио книги, журналы? Добро пожаловать на свободный торрент трекер Torrents, у нас можно скачать бесплатно, без смс и регистрации и прочих ограничений лучшие, отборные сборки программ, игр. Скачать торрентом не составит труда даже не опытному пользователю. Раздачи ежедневно обновляются, только лучшие и качественные раздачи, подробные описания и скриншоты. Огромная коллекция программ для работы со звуком, графикой, дизайном, а так же множество плагинов и инструментов к ним с подробной инструкцией и рекомендациями. Прошивки для навигаторов, карты. Разнообразные игры, для Windows, Linux. В коллекцие есть и старые игры любых жанров, Rpg, Action, Shooter, strategy Множество дополнений, модификаций, сценариев для популярных игр в жанре экш, рпг, гонки, стратегии, логические игры. Множество аддонов и сценариев для Microsoft Flight Simulator Большая коллекция книг, учебников. Если нет возможности купить печатное издание - смело скачивайте цифровую версию книги или, быть может, журнала. Не любите читать - можно загрузить бесплатно аудикнигу. Для веб дизайнеров и программистов так же найдется множество специализированного софта, таких как: редакторы с подсветкой, среды программирования, компоненты, системы управления базами данных, разнообразные скрипты и шаблоны. Не так давно у нас появился материал для автолюбителей и владельцев мото - оригинальные и неоригинальные каталоги запчастей, книги и журналы по ремонту и обслуживанию, видеоуроки, статьи по чип тюнингу, прошивкам. Процедура получения контента элементарная, достаточно просто скачать торрент файл и добавить его в загрузку в вашем торрент клиенте. Если у вас нет специального торрент клиента, вы можете его скачать у нас.