Врата рая / Heaven\'s Gate (Майкл Чимино / Michael Cimino) [1980, США, драма, приключения, вестерн, HDRip] [Режиссерская версия / Director\'s cut] DVO (НТВ+) + 2x Sub (Rus, Eng) + Original (Eng, Rus, Fre, Pol, Ger) 

Цитировать
Врата рая | Heaven's Gate«The only thing greater than their passion for America... was their passion for each other»Режиссерская версия | Director's cut
Страна: США
Студия: Partisan Productions
Жанр: драма, приключения, вестерн
Год выпуска: 1980
Продолжительность: 03:37:04
Перевод: Профессиональный (двухголосый закадровый) НТВ+*
Субтитры: русские, английские
Оригинальная аудиодорожка: английский, русский, французский, польский, немецкий
Режиссер: Майкл Чимино / Michael Cimino
В ролях: Крис Кристофферсон, Кристофер Уокен, Джон Хёрт, Сэм Уотерстон, Брэд Дуриф, Изабель Юппер, Джозеф Коттен, Джефф Бриджес, Ронни Хоукинс, Пол Косло
Описание: В основе фильма - «война округа Джонсон», столкновение, произошедшее в Вайоминге в 1890 году. В округе Джонсон шериф Джеймс Эверилл пытается защитить интересы европейских иммигрантов-фермеров от посягательств богатых землевладельцев, которые нанимают Натана Чампиона, для устрашения поселенцев. Начинается вооружённый конфликт между наёмниками землевладельцев и фермерами, пытающимися построить новую жизнь на американской границе, который достигает апофеоза в жестоком сражении. И только регулярная армия сможет остановить кровопролитие.

*Собственная запись со спутника Eutelsat 36A/36B (36°E) | MGM HD (эфир 06.08.2017г.)
Качество видео: HDRip
Формат видео: AVI
Видео: MPEG-4 Visual / 720x304 (2,40:1) / 23,976 fps / XviD build 64 ~2222 kbps avg / 0.423 bit/pixel
Аудио 1: Russian | Dolby Digital Audio / 48 kHz / 2.0 Ch / 192 kbps / 16-bit | DVO | НТВ+*
Аудио 2: Multi (Eng, Rus, Fre, Pol, Ger) | Dolby Digital Audio / 48 kHz / 5.0 Ch / 448 kbps / 16-bit | Original
Формат субтитров: softsub (SRT)

MediaInfo

Общее
Полное имя                               : N:\BDRip\Heaven's Gate.1980.Director's cut.HDRip.XviD.DVO.DD.2.0.avi
Формат                                   : AVI
Формат/Информация                        : Audio Video Interleave
Профиль формата                          : OpenDML
Размер файла                             : 4,36 Гбайт
Продолжительность                        : 3 ч. 37 м.
Общий поток                              : 2876 Кбит/сек
Программа кодирования                    : VirtualDubMod 1.5.10.3 | www.virtualdub-fr.org || (build 2550/release)
Библиотека кодирования                   : VirtualDubMod build 2550/release
Видео
Идентификатор                            : 0
Формат                                   : MPEG-4 Visual
Профиль формата                          : Advanced Simple@L5
Параметр BVOP формата                    : 1
Параметр QPel формата                    : Нет
Параметр GMC формата                     : Без точки перехода
Параметр матрицы формата                 : Default (MPEG)
Идентификатор кодека                     : XVID
Идентификатор кодека/Подсказка           : XviD
Продолжительность                        : 3 ч. 37 м.
Битрейт                                  : 2222 Кбит/сек
Ширина                                   : 720 пикселей
Высота                                   : 304 пикселя
Соотношение сторон                       : 2,40:1
Соотношение сторон в оригинале           : 2,35:1
Частота кадров                           : 23,976 (24000/1001) кадра/сек
Цветовое пространство                    : YUV
Субдискретизация насыщенности            : 4:2:0
Битовая глубина                          : 8 бит
Тип развёртки                            : Прогрессивная
Метод сжатия                             : С потерями
Бит/(Пиксели*Кадры)                      : 0.423
Размер потока                            : 3,37 Гбайт (77%)
Библиотека кодирования                   : XviD 64
Аудио #1
Идентификатор                            : 1
Формат                                   : AC-3
Формат/Информация                        : Audio Coding 3
Параметр Endianness формата              : Big
Идентификатор кодека                     : 2000
Продолжительность                        : 3 ч. 37 м.
Вид битрейта                             : Постоянный
Битрейт                                  : 192 Кбит/сек
Каналы                                   : 2 канала
Расположение каналов                     : Front: L R
Частота                                  : 48,0 КГц
Частота кадров                           : 31,250 кадров/сек (1536 SPF)
Битовая глубина                          : 16 бит
Метод сжатия                             : С потерями
Размер потока                            : 298 Мбайт (7%)
Выравнивание                             : Разделение по промежуткам
Продолжительность промежутка             : 42  мс. (1,00 видеокадр)
Время предзагрузки промежутка            : 500  мс.
Заголовок                                : RUS | DVO | НТВ+ | HDTV
ServiceKind/String                       : Complete Main
Аудио #2
Идентификатор                            : 2
Формат                                   : AC-3
Формат/Информация                        : Audio Coding 3
Параметр Endianness формата              : Big
Идентификатор кодека                     : 2000
Продолжительность                        : 3 ч. 37 м.
Вид битрейта                             : Постоянный
Битрейт                                  : 448 Кбит/сек
Каналы                                   : 5 каналов
Расположение каналов                     : Front: L C R, Side: L R
Частота                                  : 48,0 КГц
Частота кадров                           : 31,250 кадров/сек (1536 SPF)
Битовая глубина                          : 16 бит
Метод сжатия                             : С потерями
Размер потока                            : 696 Мбайт (16%)
Выравнивание                             : Разделение по промежуткам
Продолжительность промежутка             : 42  мс. (1,00 видеокадр)
Время предзагрузки промежутка            : 500  мс.
Заголовок                                : ENG | Original | Blu-Ray
ServiceKind/String                       : Complete Main
Вы не можете начинать темы
Вы не можете отвечать на сообщения
Вы не можете редактировать свои сообщения
Вы не можете удалять свои сообщения
Вы не можете голосовать в опросах
Вы не можете прикреплять файлы к сообщениям
Вы можете скачивать файлы
!ВНИМАНИЕ!

Сайт не предоставляет электронные версии произведений, а занимается лишь коллекционированием и каталогизацией ссылок, присылаемых и публикуемых на форуме нашими читателями. Если вы являетесь правообладателем какого-либо представленного материала и не желаете, чтобы ссылка на него находилась в нашем каталоге, свяжитесь с нами, и мы незамедлительно удалим ее. Файлы для обмена на трекере предоставлены пользователями сайта, и администрация не несет ответственности за их содержание. Просьба не заливать файлы, защищенные авторскими правами, а также файлы нелегального содержания!

Искали программы, игры, дополнения, музыка mp3, аниме, аудио книги, журналы? Добро пожаловать на свободный торрент трекер Torrents, у нас можно скачать бесплатно, без смс и регистрации и прочих ограничений лучшие, отборные сборки программ, игр. Скачать торрентом не составит труда даже не опытному пользователю. Раздачи ежедневно обновляются, только лучшие и качественные раздачи, подробные описания и скриншоты. Огромная коллекция программ для работы со звуком, графикой, дизайном, а так же множество плагинов и инструментов к ним с подробной инструкцией и рекомендациями. Прошивки для навигаторов, карты. Разнообразные игры, для Windows, Linux. В коллекцие есть и старые игры любых жанров, Rpg, Action, Shooter, strategy Множество дополнений, модификаций, сценариев для популярных игр в жанре экш, рпг, гонки, стратегии, логические игры. Множество аддонов и сценариев для Microsoft Flight Simulator Большая коллекция книг, учебников. Если нет возможности купить печатное издание - смело скачивайте цифровую версию книги или, быть может, журнала. Не любите читать - можно загрузить бесплатно аудикнигу. Для веб дизайнеров и программистов так же найдется множество специализированного софта, таких как: редакторы с подсветкой, среды программирования, компоненты, системы управления базами данных, разнообразные скрипты и шаблоны. Не так давно у нас появился материал для автолюбителей и владельцев мото - оригинальные и неоригинальные каталоги запчастей, книги и журналы по ремонту и обслуживанию, видеоуроки, статьи по чип тюнингу, прошивкам. Процедура получения контента элементарная, достаточно просто скачать торрент файл и добавить его в загрузку в вашем торрент клиенте. Если у вас нет специального торрент клиента, вы можете его скачать у нас.