Американский оборотень в Лондоне / An American Werewolf in London (Джон Лэндис / John Landis) [1981, Великобритания, ужасы, BDRip] DVO (Кипарис / НТВ) 

Цитировать
Американский оборотень в Лондоне / An American Werewolf in London
Страна: Великобритания
Жанр: ужасы
Год выпуска: 1981
Продолжительность: 01:37:31
Перевод: Профессиональный (двухголосый закадровый) Кипарис / НТВ
Субтитры: нет
Оригинальная аудиодорожка: нет
Режиссер: Джон Лэндис / John Landis
В ролях: Дэвид Нотон, Дженни Агаттер, Гриффин Данн, Джон Вудвайн, Дэвид Скофилд, Брайан Гловер
Описание: Есть в старушке Англии лихие, жуткие места, путешествовать по которым чрезвычайно опасно… И наших героев, двух беззаботных американских туристов, об этом предупредили. Но веселые заокеанские парни не вняли предостережениям местных жителей и в глухой ночи, освещаемой мёртвым светом луны, сошли с дороги.
Здесь во мраке их ждал неописуемый кошмар, после которого одному из американцев было суждено стать ужасным призраком, а другому — кровожадным оборотнем!
Доп. информация:
Видеоряд с Рутора от HQClub.
Звуковая дорожка с переводом студии "Кипарис" взята из релиза Hel_ka67 http://rutracker.org/forum/viewtopic.php?t=5363968, большое ему спасибо.
За синхронизацию звуковой дорожки огромная благодарность JUSTKANT.
Мужские роли озвучивал Владимир Герасимов.
Сэмпл: http://www.sendspace.com/file/3qvkds
Качество видео: BDRip
Формат видео: AVI
Видео: 704x384, 23.976 fps, MPEG-4 Visual, 1930 Kbps, XviD 65
Аудио: 48 KHz, AC3, 2 ch, 192 Kbps

MediaInfo

General
Complete name : C:\Users\Американский оборотень в Лондоне (НТВ).avi
Format : AVI
Format/Info : Audio Video Interleave
File size : 1.45 GiB
Duration : 1h 37mn
Overall bit rate : 2 131 Kbps
Movie name : Американский оборотень в Лондоне / An American Werewolf in London (1981) BDRip
Director : sociolog_melvas
Genre : ужасы, фэнтези, комедия
Writing application : VirtualDubMod 1.5.10.2 (build 2540/release)
Writing library : VirtualDubMod build 2540/release
Copyright : HQCLUB
Video
ID : 0
Format : MPEG-4 Visual
Format profile : Advanced Simple@L5
Format settings, BVOP : 1
Format settings, QPel : No
Format settings, GMC : No warppoints
Format settings, Matrix : Custom
Codec ID : XVID
Codec ID/Hint : XviD
Duration : 1h 37mn
Bit rate : 1 930 Kbps
Width : 704 pixels
Height : 384 pixels
Display aspect ratio : 1.85:1
Frame rate : 23.976 fps
Color space : YUV
Chroma subsampling : 4:2:0
Bit depth : 8 bits
Scan type : Progressive
Compression mode : Lossy
Bits/(Pixel*Frame) : 0.298
Stream size : 1.31 GiB (91%)
Writing library : XviD 65
Audio
ID : 1
Format : AC-3
Format/Info : Audio Coding 3
Mode extension : CM (complete main)
Format settings, Endianness : Big
Codec ID : 2000
Duration : 1h 37mn
Bit rate mode : Constant
Bit rate : 192 Kbps
Channel(s) : 2 channels
Channel positions : Front: L R
Sampling rate : 48.0 KHz
Bit depth : 16 bits
Compression mode : Lossy
Stream size : 134 MiB (9%)
Alignment : Split accross interleaves
Interleave, duration : 42 ms (1.00 video frame)
Interleave, preload duration : 500 ms

Скриншоты

Вы не можете начинать темы
Вы не можете отвечать на сообщения
Вы не можете редактировать свои сообщения
Вы не можете удалять свои сообщения
Вы не можете голосовать в опросах
Вы не можете прикреплять файлы к сообщениям
Вы можете скачивать файлы
!ВНИМАНИЕ!

Сайт не предоставляет электронные версии произведений, а занимается лишь коллекционированием и каталогизацией ссылок, присылаемых и публикуемых на форуме нашими читателями. Если вы являетесь правообладателем какого-либо представленного материала и не желаете, чтобы ссылка на него находилась в нашем каталоге, свяжитесь с нами, и мы незамедлительно удалим ее. Файлы для обмена на трекере предоставлены пользователями сайта, и администрация не несет ответственности за их содержание. Просьба не заливать файлы, защищенные авторскими правами, а также файлы нелегального содержания!

Искали программы, игры, дополнения, музыка mp3, аниме, аудио книги, журналы? Добро пожаловать на свободный торрент трекер Torrents, у нас можно скачать бесплатно, без смс и регистрации и прочих ограничений лучшие, отборные сборки программ, игр. Скачать торрентом не составит труда даже не опытному пользователю. Раздачи ежедневно обновляются, только лучшие и качественные раздачи, подробные описания и скриншоты. Огромная коллекция программ для работы со звуком, графикой, дизайном, а так же множество плагинов и инструментов к ним с подробной инструкцией и рекомендациями. Прошивки для навигаторов, карты. Разнообразные игры, для Windows, Linux. В коллекцие есть и старые игры любых жанров, Rpg, Action, Shooter, strategy Множество дополнений, модификаций, сценариев для популярных игр в жанре экш, рпг, гонки, стратегии, логические игры. Множество аддонов и сценариев для Microsoft Flight Simulator Большая коллекция книг, учебников. Если нет возможности купить печатное издание - смело скачивайте цифровую версию книги или, быть может, журнала. Не любите читать - можно загрузить бесплатно аудикнигу. Для веб дизайнеров и программистов так же найдется множество специализированного софта, таких как: редакторы с подсветкой, среды программирования, компоненты, системы управления базами данных, разнообразные скрипты и шаблоны. Не так давно у нас появился материал для автолюбителей и владельцев мото - оригинальные и неоригинальные каталоги запчастей, книги и журналы по ремонту и обслуживанию, видеоуроки, статьи по чип тюнингу, прошивкам. Процедура получения контента элементарная, достаточно просто скачать торрент файл и добавить его в загрузку в вашем торрент клиенте. Если у вас нет специального торрент клиента, вы можете его скачать у нас.