Последняя зима / The Last Winter (Аарон Ким Джонстон / Aaron Kim Johnston) [1989, Канада, драма, DVB] MVO (Студия Акцент) + Original (Eng) 

Цитировать
Последняя зима
The Last Winter- Страна: Канада
Жанр: драма
Год выпуска: 1989
Продолжительность: 01:38:24
Перевод: Профессиональный (многоголосый закадровый) Студия "Акцент" по заказу Kino Polska
Субтитры: нет
Оригинальная аудиодорожка: английский
Режиссер: Аарон Ким Джонстон / Aaron Kim Johnston
В ролях: Джошуа Мюррэй / Joshua Murray (William Jamison), Герард Паркс / Gerard Parkes (Grampa Jack), Дэвид Ферри / David Ferry (Ross Jamison), Ванда Кэннон / Wanda Cannon (Audrey Jamison), Натаниель Моро / Nathaniel Moreau (John Jamison)
Описание: Середина 1950-х. Уильям живет вместе с папой, мамой, сестрой и дедушкой на маленькой ферме. Его семья скоро должна переехать в город, где отца ждет новая работа. Мальчику приходится распроститься навсегда со всем, что так дорого его сердцу - природой, собакой, друзьями и первой любовью.
Доп. информация: Intelsat 15 (85.0°E) Filmbox DVB-S
Награды: номинация на премию "Джинни" 1990 Канадской академии кино и телевидения в категории "Лучший художник по костюмам"; Гран-при Paris Film Festival 1991; приз "Хрустальное сердце" Heartland Film Festival 1993.

Качество видео: DVB
Формат видео: MKV
Видео: MPEG Video 2, 720x576@1024x576 (16:9), 25 fps, ~2323 kbps avg, 0.224 bit/pixel
Аудио 1: MPEG Audio 2, 2 ch, 48 kHz, 128 kbps - русский
Аудио 2: MPEG Audio 2, 2 ch, 48 kHz, 128 kbps - английский

MediaInfo

General
Unique ID : 226163550202152867720368909792404534616 (0xAA2583EF0C283C329F8D65D2538F7558)
Complete name : [apreder]The_Last_Winter(1989)DVB.mkv
Format : Matroska
Format version : Version 2
File size : 1.78 GiB
Duration : 1 h 38 min
Overall bit rate mode : Variable
Overall bit rate : 2 584 kb/s
Movie name : The Last Winter
Released date : 1989-10-18
Encoded date : UTC 2017-09-01 09:03:03
Writing application : mkvmerge v15.0.0 ('Duel with the Devil') 64-bit
Writing library : libebml v1.3.5 + libmatroska v1.4.5
Cover : Yes
Attachments : cover.jpg / small_cover.jpg
ACTOR : Gerard Parkes, Joshua Murray
DIRECTOR : Aaron Kim Johnston
GENRE : Drama
IMDB : tt0099990
KEYWORDS : rutracker.org
LAW_RATING : 16+
Video
ID : 1
Format : MPEG Video
Format version : Version 2
Format profile : Main@Main
Format settings, BVOP : Yes
Format settings, Matrix : Custom
Format settings, GOP : M=4, N=12
Format settings, picture structure : Frame
Codec ID : V_MPEG2
Codec ID/Info : MPEG 1 or 2 Video
Duration : 1 h 38 min
Bit rate mode : Variable
Bit rate : 2 323 kb/s
Maximum bit rate : 10 000 kb/s
Width : 720 pixels
Height : 576 pixels
Display aspect ratio : 16:9
Frame rate mode : Constant
Frame rate : 25.000 FPS
Standard : PAL
Color space : YUV
Chroma subsampling : 4:2:0
Bit depth : 8 bits
Scan type : Interlaced
Scan order : Top Field First
Compression mode : Lossy
Bits/(Pixel*Frame) : 0.224
Time code of first frame : 07:26:41:00
Time code source : Group of pictures header
GOP, Open/Closed : Open
Stream size : 1.60 GiB (90%)
Default : Yes
Forced : No
Audio #1
ID : 2
Format : MPEG Audio
Format version : Version 1
Format profile : Layer 2
Codec ID : A_MPEG/L2
Codec ID/Hint : MP2
Duration : 1 h 38 min
Bit rate mode : Constant
Bit rate : 128 kb/s
Channel(s) : 2 channels
Sampling rate : 48.0 kHz
Frame rate : 41.667 FPS (1152 SPF)
Compression mode : Lossy
Stream size : 90.1 MiB (5%)
Language : Russian
Default : Yes
Forced : No
Audio #2
ID : 3
Format : MPEG Audio
Format version : Version 1
Format profile : Layer 2
Codec ID : A_MPEG/L2
Codec ID/Hint : MP2
Duration : 1 h 38 min
Bit rate mode : Constant
Bit rate : 128 kb/s
Channel(s) : 2 channels
Sampling rate : 48.0 kHz
Frame rate : 41.667 FPS (1152 SPF)
Compression mode : Lossy
Stream size : 90.1 MiB (5%)
Language : English
Default : No
Forced : No

Скриншот c названием фильма

Скриншоты


Резервные скриншоты


- [3'848]
Вы не можете начинать темы
Вы не можете отвечать на сообщения
Вы не можете редактировать свои сообщения
Вы не можете удалять свои сообщения
Вы не можете голосовать в опросах
Вы не можете прикреплять файлы к сообщениям
Вы можете скачивать файлы
!ВНИМАНИЕ!

Сайт не предоставляет электронные версии произведений, а занимается лишь коллекционированием и каталогизацией ссылок, присылаемых и публикуемых на форуме нашими читателями. Если вы являетесь правообладателем какого-либо представленного материала и не желаете, чтобы ссылка на него находилась в нашем каталоге, свяжитесь с нами, и мы незамедлительно удалим ее. Файлы для обмена на трекере предоставлены пользователями сайта, и администрация не несет ответственности за их содержание. Просьба не заливать файлы, защищенные авторскими правами, а также файлы нелегального содержания!

Искали программы, игры, дополнения, музыка mp3, аниме, аудио книги, журналы? Добро пожаловать на свободный торрент трекер Torrents, у нас можно скачать бесплатно, без смс и регистрации и прочих ограничений лучшие, отборные сборки программ, игр. Скачать торрентом не составит труда даже не опытному пользователю. Раздачи ежедневно обновляются, только лучшие и качественные раздачи, подробные описания и скриншоты. Огромная коллекция программ для работы со звуком, графикой, дизайном, а так же множество плагинов и инструментов к ним с подробной инструкцией и рекомендациями. Прошивки для навигаторов, карты. Разнообразные игры, для Windows, Linux. В коллекцие есть и старые игры любых жанров, Rpg, Action, Shooter, strategy Множество дополнений, модификаций, сценариев для популярных игр в жанре экш, рпг, гонки, стратегии, логические игры. Множество аддонов и сценариев для Microsoft Flight Simulator Большая коллекция книг, учебников. Если нет возможности купить печатное издание - смело скачивайте цифровую версию книги или, быть может, журнала. Не любите читать - можно загрузить бесплатно аудикнигу. Для веб дизайнеров и программистов так же найдется множество специализированного софта, таких как: редакторы с подсветкой, среды программирования, компоненты, системы управления базами данных, разнообразные скрипты и шаблоны. Не так давно у нас появился материал для автолюбителей и владельцев мото - оригинальные и неоригинальные каталоги запчастей, книги и журналы по ремонту и обслуживанию, видеоуроки, статьи по чип тюнингу, прошивкам. Процедура получения контента элементарная, достаточно просто скачать торрент файл и добавить его в загрузку в вашем торрент клиенте. Если у вас нет специального торрент клиента, вы можете его скачать у нас.