Лицеистка на море с папиной подругой / La liceale al mare con l\'amica di papa (Марино Джиролами / Marino Girolami) [1980, Италия, комедия, DVDRip] Original Ita + Sub Rus (Антон Каптелов) 

Цитировать
Лицеистка на море с папиной подругой / La liceale al mare con l'amica di papa Страна: Италия
Жанр: комедия
Год выпуска: 1980
Продолжительность: 01:26:05
Перевод: Субтитры Антон Каптелов
Субтитры: русские
Оригинальная аудиодорожка: итальянский
Режиссер: Марино Джиролами / Marino Girolami
В ролях: Ренцо Монтаньяни, Мариза Мелл, Альваро Витали, Сабрина Сиани, Чинция Де Понти, Андреа Брамбилла, Лучио Монтанаро, Убальдо Ло Прести, Альдо Массассо
Описание: Стареющий ловелас Массимо Кастальди со своей супругой и дочерью Соней отправляется на отдых к морю. И все бы ничего, но бедняга Массимо вынужден будет разлучиться со своей молодой любовницей Лаурой. Однако безвыходных ситуаций не бывает, и Лаура отправляется вслед за семейством под видом монахини-репетиторши для провалившей экзамен Сони. Тем временем, на богатеньких Кастальди обратила внимание парочка проходимцев, решивших похитить кого-нибудь из них для получения выкупа.
Сэмпл: http://multi-up.com/1167591
Качество видео: DVDRip (рип найден в сети)
Формат видео: AVI
Видео: 688x384 (1.79:1), 25.000 fps, XviD build 67 ~2067 kbps avg, 0.31 bit/pixel
Аудио: 48 kHz, AC3 Dolby Digital, 1/0 (C) ch, ~192 kbps
Релиз:
Формат субтитров: softsub (SRT)
18+

MediaInfo

Формат                                   : AVI
Формат/Информация : Audio Video Interleave
Размер файла : 1,36 Гбайт
Продолжительность : 1 ч. 26 м.
Общий поток : 2269 Кбит/сек
Видео
Идентификатор : 0
Формат : MPEG-4 Visual
Профиль формата : Advanced Simple@L5
Параметр BVOP формата : 2
Параметр QPel формата : Нет
Параметр GMC формата : Без точки перехода
Параметр матрицы формата : Default (MPEG)
Идентификатор кодека : XVID
Идентификатор кодека/Подсказка : XviD
Продолжительность : 1 ч. 26 м.
Битрейт : 2068 Кбит/сек
Ширина : 688 пикселей
Высота : 384 пикселя
Соотношение сторон : 16:9
Частота кадров : 25,000 кадров/сек
Цветовое пространство : YUV
Субдискретизация насыщенности : 4:2:0
Битовая глубина : 8 бит
Тип развёртки : Прогрессивная
Метод сжатия : С потерями
Бит/(Пиксели*Кадры) : 0.313
Размер потока : 1,24 Гбайт (91%)
Библиотека кодирования : XviD 67
Аудио
Идентификатор : 1
Формат : AC-3
Формат/Информация : Audio Coding 3
Расширение режима : CM (complete main)
Параметр Endianness формата : Big
Идентификатор кодека : 2000
Продолжительность : 1 ч. 26 м.
Вид битрейта : Постоянный
Битрейт : 192 Кбит/сек
Каналы : 1 канал
Расположение каналов : Front: C
Частота : 48,0 КГц
Частота кадров : 31,250 кадров/сек (1536 spf)
Метод сжатия : С потерями
Размер потока : 118 Мбайт (8%)
Выравнивание : Соединение по промежуткам
Продолжительность промежутка : 40 мс. (1,00 видеокадр)
Время предзагрузки промежутка : 512 мс.

Скриншот c названием фильма

Пример субтитров

12
00:02:20,365 --> 00:02:21,783
Разве это не поразительно?
13
00:02:21,840 --> 00:02:23,797
- Мы тоже можем войти, разве нет?
- А ты прав!
14
00:02:23,880 --> 00:02:26,443
- Мы тоже войдем! Это необходимо!
- Ну, да!
15
00:02:26,554 --> 00:02:28,521
А деньги... У тебя есть деньги?
16
00:02:28,601 --> 00:02:30,823
Деньги? Ах, да-да!
У меня есть.
17
00:02:31,020 --> 00:02:33,665
- Где-то они у меня тут...
- Не тяни! Деньги!
18
00:02:34,389 --> 00:02:37,217
Раз, два, три, четыре, пять...
19
00:02:37,316 --> 00:02:38,940
- Здесь 175 лир.
- Прекрасно!
20
00:02:39,099 --> 00:02:41,791
Мы на коне!
Но на билет все равно недостаточно.
21
00:02:42,463 --> 00:02:43,764
У тебя есть еще?
22
00:02:43,826 --> 00:02:46,246
Нам нужно найти какой-то способ
войти внутрь, уж извини!
23
00:02:46,454 --> 00:02:48,636
Конечно, нам надо найти решение!
Но дай мне время!
24
00:02:48,710 --> 00:02:50,357
- Да.
- А что, если...
25
00:02:50,506 --> 00:02:52,151
Я нашел!
26
00:02:52,346 --> 00:02:56,058
Осторожней... Осторожно-осторожно!
Вот так... Осторожней же!
27
00:02:56,170 --> 00:02:59,023
Осторожно, не разбей стекло!
Вот так, осторожно!
28
00:02:59,225 --> 00:03:02,206
- А вы куда идете?
- Нам нужно заменить оконное стекло.
29
00:03:02,345 --> 00:03:04,771
- Сейчас? Когда начался сеанс?
- Распоряжение директора!
30
00:03:05,657 --> 00:03:07,256
Тут стекло!
31
00:03:07,400 --> 00:03:10,724
Ну, и где же стекло?
Да, вы - мошенники! Уходите немедленно,
пока я...
32
00:03:10,872 --> 00:03:12,666
- Бежим скорее!
- А как же стекло?
33
00:03:12,853 --> 00:03:15,401
Брось ты его! Мы же за него не платили!
Огромное спасибо Антону Каптелову за перевод фильма и rotorovv за предоставленный рип!
Вы не можете начинать темы
Вы не можете отвечать на сообщения
Вы не можете редактировать свои сообщения
Вы не можете удалять свои сообщения
Вы не можете голосовать в опросах
Вы не можете прикреплять файлы к сообщениям
Вы можете скачивать файлы
!ВНИМАНИЕ!

Сайт не предоставляет электронные версии произведений, а занимается лишь коллекционированием и каталогизацией ссылок, присылаемых и публикуемых на форуме нашими читателями. Если вы являетесь правообладателем какого-либо представленного материала и не желаете, чтобы ссылка на него находилась в нашем каталоге, свяжитесь с нами, и мы незамедлительно удалим ее. Файлы для обмена на трекере предоставлены пользователями сайта, и администрация не несет ответственности за их содержание. Просьба не заливать файлы, защищенные авторскими правами, а также файлы нелегального содержания!

Искали программы, игры, дополнения, музыка mp3, аниме, аудио книги, журналы? Добро пожаловать на свободный торрент трекер Torrents, у нас можно скачать бесплатно, без смс и регистрации и прочих ограничений лучшие, отборные сборки программ, игр. Скачать торрентом не составит труда даже не опытному пользователю. Раздачи ежедневно обновляются, только лучшие и качественные раздачи, подробные описания и скриншоты. Огромная коллекция программ для работы со звуком, графикой, дизайном, а так же множество плагинов и инструментов к ним с подробной инструкцией и рекомендациями. Прошивки для навигаторов, карты. Разнообразные игры, для Windows, Linux. В коллекцие есть и старые игры любых жанров, Rpg, Action, Shooter, strategy Множество дополнений, модификаций, сценариев для популярных игр в жанре экш, рпг, гонки, стратегии, логические игры. Множество аддонов и сценариев для Microsoft Flight Simulator Большая коллекция книг, учебников. Если нет возможности купить печатное издание - смело скачивайте цифровую версию книги или, быть может, журнала. Не любите читать - можно загрузить бесплатно аудикнигу. Для веб дизайнеров и программистов так же найдется множество специализированного софта, таких как: редакторы с подсветкой, среды программирования, компоненты, системы управления базами данных, разнообразные скрипты и шаблоны. Не так давно у нас появился материал для автолюбителей и владельцев мото - оригинальные и неоригинальные каталоги запчастей, книги и журналы по ремонту и обслуживанию, видеоуроки, статьи по чип тюнингу, прошивкам. Процедура получения контента элементарная, достаточно просто скачать торрент файл и добавить его в загрузку в вашем торрент клиенте. Если у вас нет специального торрент клиента, вы можете его скачать у нас.