Неизлечимые / Медицина бессильна / Лечению не подлежит / Это - судьба! / Beyond Therapy (Роберт Олтмен / Robert Altman) [1987, США, Комедия, DVDRip-AVC] MVO ("Варус-Видео") + Original Eng 

Цитировать
Неизлечимые / Медицина бессильна / Лечению не подлежит / Это - судьба! / Beyond Therapy
Жанр: Комедия
Страна: США
Студия: New World Pictures, A Roger Berlind Production, Sandcastle 5 Film
Год выпуска: 1987
Продолжительность: 01:33:19
Перевод: Профессиональный (многоголосый закадровый) - "Варус-Видео"
Субтитры: нет
Оригинальная аудиодорожка: английский
Режиссер: Роберт Олтмен / Robert Altman
В ролях:
Джули Хэгерти / Julie Hagerty ... Prudence
Джефф Голдблюм / Jeff Goldblum ... Bruce
Гленда Джексон / Glenda Jackson ... Charlotte
Том Конти / Tom Conti ... Stuart
Кристофер Гест / Christopher Guest ... Bob
Женевьев Паж / Geneviève Page ... Zizi
Крис Кампьон / Cris Campion ... Andrew
Сандрин Дюма / Sandrine Dumas ... Cindy
Бертран Бонвуазен / Bertrand Bonvoisin ... Le Gérant
Николь Эванс / Nicole Evans ... The Cashier
Луи-Мари Тайлефер / Louis-Marie Taillefer ... Le Chef
Мэтью Леонард-Лесняк / Matthew Leonard-Lesniak ... Mr. Bean
Лор Киллинг / Laure Killing ... Charlie
Жильбер Блен / Gilbert Blin ... Waiter
Венсан Лонгемар / Vincent Longuemare ... Waiter
Описание: По одноимённой пьесе-фарсу Кристофера Дюрана ( Christopher Durang).
Они познакомились по объявлению в газете. Первое свидание грозило стать последним. Разговор принял странный оборот: Брюс признался, что бисексуален и живёт вместе с другом, и тут же предложил Пруденс руку и сердце, на что она отреагировала весьма резко, выплеснув в лицо ухажёру стакан воды. Утешения оба ищут у своих психотерапевтов, флиртующих со своими пациентами и друг с другом. Пруденс сообщает своему врачу, что, кажется, нашла свою судьбу — снова в газетной колонке знакомств. Она не подозревает, что это всё тот же Брюс, поместивший объявление под другим именем. На их свидание приходят психоаналитики и ревнивый любовник Брюса со своей не в меру заботливой мамой. Ситуация накаляется…
Дополнительная информация: Релиз:
Автор рипа: pmv
Большое спасибо за:
- синхронизацию звука – pmv
- исходный DVD5 (http://rutracker.org/forum/viewtopic.php?t=4121440) – AVV_UA
* Запись со спутника выполнена Saulius Kintera / Luxembourg /, который предоставил видео с русской аудиодорожкой (озвучка "Варус-Видео"), за что приносим ему Благодарность!
Большое спасибо за помощь в подготовке релиза - trecioka!
* В данном релизе впервые представлена озвучка фильма, выполненная на студии "Варус-Видео". В двух других раздачах на Рутрекере - одноголосая озвучка от Ирэн (VHS).
* В фильме звучит песня, написанная Джорджем и и Айрой Гершвин / George & Ira Gershwin для мюзикла "Oh, Kay!" (1926) - "Someone To Watch Over Me" («Кто-то, кто будет присматривать за мной»), в финале исполняемая Ив Монтаном / Yves Montand, записавшим её исключительно для этого фильма.
IMDb = 4,7/10 (940) - http://www.imdb.com/title/tt0092646/
Кинопоиск = - (48) - http://www.kinopoisk.ru/film/eto-sudba-1987-1679/
ВНИМАНИЕ!!! РИП ФОРМАТА mkv (кодек H.264) ВОСПРОИЗВОДИТСЯ НЕ НА ВСЕХ БЫТОВЫХ ВИДЕОПЛЕЕРАХ!!!
ПРОСЬБА к СКАЧАВШИМ. НЕ УХОДИТЕ С РАЗДАЧИ, ПОМОГИТЕ ДРУГИМ СКАЧАТЬ!!!
Качество видео: DVDRip-AVC
Формат видео: MKV
Видео: AVC (H264), 720@858x464 (1.85:1), 23.976 fps, 1700 kb/s, 0.212 Bits/Pixel
Аудио #1: AC3, 48 kHz, stereo (2 ch), 192 kbps - русский
Аудио #2: AC3, 48 kHz, stereo (2 ch), 192 kbps - английский

MediaInfo

General
Unique ID : 202107422971292295746176575532176591389 (0x980C794A313B6AF6A9A3DF0F3F314A1D)
Complete name : D:\Films\torrents\Beyond Therapy (1987, rus_MVO+eng).mkv
Format : Matroska
Format version : Version 4 / Version 2
File size : 1.36 GiB
Duration : 1 h 33 min
Overall bit rate : 2 085 kb/s
Encoded date : UTC 2017-09-08 12:51:39
Writing application : mkvmerge v15.0.0 ('Duel with the Devil') 64-bit
Writing library : libebml v1.3.5 + libmatroska v1.4.5
Video
ID : 1
Format : AVC
Format/Info : Advanced Video Codec
Format profile : High@L4.1
Format settings, CABAC : Yes
Format settings, ReFrames : 16 frames
Codec ID : V_MPEG4/ISO/AVC
Duration : 1 h 33 min
Bit rate : 1 700 kb/s
Width : 720 pixels
Height : 464 pixels
Display aspect ratio : 1.85:1
Original display aspect ratio : 16:10
Frame rate mode : Constant
Frame rate : 23.976 (23976/1000) FPS
Original frame rate : 23.976 (24000/1001) FPS
Color space : YUV
Chroma subsampling : 4:2:0
Bit depth : 8 bits
Scan type : Progressive
Bits/(Pixel*Frame) : 0.212
Stream size : 1.11 GiB (82%)
Writing library : x264 core 146 r2538 121396c
Encoding settings : cabac=1 / ref=16 / deblock=1:0:0 / analyse=0x3:0x133 / me=umh / subme=10 / psy=1 / psy_rd=1.00:0.00 / mixed_ref=1 / me_range=24 / chroma_me=1 / trellis=2 / 8x8dct=1 / cqm=0 / deadzone=21,11 / fast_pskip=1 / chroma_qp_offset=-2 / threads=48 / lookahead_threads=3 / sliced_threads=0 / nr=0 / decimate=1 / interlaced=0 / bluray_compat=0 / constrained_intra=0 / bframes=8 / b_pyramid=2 / b_adapt=2 / b_bias=0 / direct=3 / weightb=1 / open_gop=0 / weightp=2 / keyint=250 / keyint_min=23 / scenecut=40 / intra_refresh=0 / rc_lookahead=60 / rc=2pass / mbtree=1 / bitrate=1700 / ratetol=1.0 / qcomp=0.60 / qpmin=0 / qpmax=69 / qpstep=4 / cplxblur=20.0 / qblur=0.5 / ip_ratio=1.40 / aq=1:1.00
Language : English
Default : Yes
Forced : No
Audio #1
ID : 2
Format : AC-3
Format/Info : Audio Coding 3
Mode extension : CM (complete main)
Format settings, Endianness : Big
Codec ID : A_AC3
Duration : 1 h 33 min
Bit rate mode : Constant
Bit rate : 192 kb/s
Channel(s) : 2 channels
Channel positions : Front: L R
Sampling rate : 48.0 kHz
Frame rate : 31.250 FPS (1536 spf)
Bit depth : 16 bits
Compression mode : Lossy
Delay relative to video : 100 ms
Stream size : 128 MiB (9%)
Language : Russian
Default : Yes
Forced : No
Audio #2
ID : 3
Format : AC-3
Format/Info : Audio Coding 3
Mode extension : CM (complete main)
Format settings, Endianness : Big
Codec ID : A_AC3
Duration : 1 h 33 min
Bit rate mode : Constant
Bit rate : 192 kb/s
Channel(s) : 2 channels
Channel positions : Front: L R
Sampling rate : 48.0 kHz
Frame rate : 31.250 FPS (1536 spf)
Bit depth : 16 bits
Compression mode : Lossy
Delay relative to video : 50 ms
Stream size : 128 MiB (9%)
Language : English
Default : No
Forced : No

Скриншот c названием фильма

МОИ РАЗДАЧИ НА РУТРЕКЕРЕ: http://rutracker.org/forum/tracker.php?rid=27390064
Вы не можете начинать темы
Вы не можете отвечать на сообщения
Вы не можете редактировать свои сообщения
Вы не можете удалять свои сообщения
Вы не можете голосовать в опросах
Вы не можете прикреплять файлы к сообщениям
Вы можете скачивать файлы
!ВНИМАНИЕ!

Сайт не предоставляет электронные версии произведений, а занимается лишь коллекционированием и каталогизацией ссылок, присылаемых и публикуемых на форуме нашими читателями. Если вы являетесь правообладателем какого-либо представленного материала и не желаете, чтобы ссылка на него находилась в нашем каталоге, свяжитесь с нами, и мы незамедлительно удалим ее. Файлы для обмена на трекере предоставлены пользователями сайта, и администрация не несет ответственности за их содержание. Просьба не заливать файлы, защищенные авторскими правами, а также файлы нелегального содержания!

Искали программы, игры, дополнения, музыка mp3, аниме, аудио книги, журналы? Добро пожаловать на свободный торрент трекер Torrents, у нас можно скачать бесплатно, без смс и регистрации и прочих ограничений лучшие, отборные сборки программ, игр. Скачать торрентом не составит труда даже не опытному пользователю. Раздачи ежедневно обновляются, только лучшие и качественные раздачи, подробные описания и скриншоты. Огромная коллекция программ для работы со звуком, графикой, дизайном, а так же множество плагинов и инструментов к ним с подробной инструкцией и рекомендациями. Прошивки для навигаторов, карты. Разнообразные игры, для Windows, Linux. В коллекцие есть и старые игры любых жанров, Rpg, Action, Shooter, strategy Множество дополнений, модификаций, сценариев для популярных игр в жанре экш, рпг, гонки, стратегии, логические игры. Множество аддонов и сценариев для Microsoft Flight Simulator Большая коллекция книг, учебников. Если нет возможности купить печатное издание - смело скачивайте цифровую версию книги или, быть может, журнала. Не любите читать - можно загрузить бесплатно аудикнигу. Для веб дизайнеров и программистов так же найдется множество специализированного софта, таких как: редакторы с подсветкой, среды программирования, компоненты, системы управления базами данных, разнообразные скрипты и шаблоны. Не так давно у нас появился материал для автолюбителей и владельцев мото - оригинальные и неоригинальные каталоги запчастей, книги и журналы по ремонту и обслуживанию, видеоуроки, статьи по чип тюнингу, прошивкам. Процедура получения контента элементарная, достаточно просто скачать торрент файл и добавить его в загрузку в вашем торрент клиенте. Если у вас нет специального торрент клиента, вы можете его скачать у нас.