Чувства / Sensi (Габриэле Лавиа / Gabriele Lavia) [1986, Италия, триллер, DVDRip] Original Ita + Sub Rus (Антон Каптелов) 

Цитировать
Чувства / Sensi Страна: Италия
Жанр: триллер
Год выпуска: 1986
Продолжительность: 01:30:01
Перевод: Субтитры Антон Каптелов
Субтитры: русские
Оригинальная аудиодорожка: итальянский
Режиссер: Габриэле Лавиа / Gabriele Lavia
В ролях: Моника Джерриторе, Габриэле Лавиа, Мимзи Фармер, Льюис Е. Цианелли, Дарио Маццоли, Джойа Скола, Рагнхильд Аслаксен
Описание: Наемный убийца Мануэль становится обладателем документов, содержащих компромат на высокопоставленных чиновников, чем подписывает себе смертный приговор. Уходя от преследования, он находит убежище в борделе, принадлежащем его старой подруге Миколь.
Сэмпл: http://multi-up.com/1167288
Качество видео: DVDRip (исходник ДВД-5, скачанный с файлообменника)
Формат видео: AVI
Видео: 704x400 (1.76:1), 25 fps, XviD build 67 ~1976 kbps avg, 0.28 bit/pixel
Аудио: 48 kHz, AC3 Dolby Digital, 2/0 (L,R) ch, ~192 kbps
Формат субтитров: softsub (SRT)
Релиз:
18+

MediaInfo

Формат                                   : AVI
Формат/Информация : Audio Video Interleave
Размер файла : 1,37 Гбайт
Продолжительность : 1 ч. 30 м.
Общий поток : 2179 Кбит/сек
Программа кодирования : VirtualDubMod 1.5.10.2 (build 2540/release)
Библиотека кодирования : VirtualDubMod build 2540/release
Видео
Идентификатор : 0
Формат : MPEG-4 Visual
Профиль формата : Advanced Simple@L5
Параметр BVOP формата : 2
Параметр QPel формата : Нет
Параметр GMC формата : Без точки перехода
Параметр матрицы формата : Default (MPEG)
Идентификатор кодека : XVID
Идентификатор кодека/Подсказка : XviD
Продолжительность : 1 ч. 30 м.
Битрейт : 1977 Кбит/сек
Ширина : 704 пикселя
Высота : 400 пикселей
Соотношение сторон : 16:9
Частота кадров : 25,000 кадров/сек
Цветовое пространство : YUV
Субдискретизация насыщенности : 4:2:0
Битовая глубина : 8 бит
Тип развёртки : Прогрессивная
Метод сжатия : С потерями
Бит/(Пиксели*Кадры) : 0.281
Размер потока : 1,24 Гбайт (91%)
Библиотека кодирования : XviD 67
Аудио
Идентификатор : 1
Формат : AC-3
Формат/Информация : Audio Coding 3
Расширение режима : CM (complete main)
Параметр Endianness формата : Big
Идентификатор кодека : 2000
Продолжительность : 1 ч. 30 м.
Вид битрейта : Постоянный
Битрейт : 192 Кбит/сек
Каналы : 2 канала
Расположение каналов : Front: L R
Частота : 48,0 КГц
Частота кадров : 31,250 кадров/сек (1536 spf)
Метод сжатия : С потерями
Размер потока : 124 Мбайт (9%)
Выравнивание : Разделение по промежуткам
Продолжительность промежутка : 40 мс. (1,00 видеокадр)
Время предзагрузки промежутка : 500 мс.

Скриншот c названием фильма

Пример субтитров

28
00:07:16,422 --> 00:07:19,297
"Ал Италия" обращает внимание
пассажиров...
29
00:07:19,396 --> 00:07:23,217
...что на рейс 864 посадка производится
через ворота 47.
30
00:07:24,136 --> 00:07:28,505
[объявляет по-английски]
"Ал Италия" сообщает, что посадка
на рейс номер 864...
31
00:07:28,832 --> 00:07:30,473
Он только что прибыл.
32
00:07:36,207 --> 00:07:38,133
На площадь Кеннеди, пожалуйста.
33
00:07:56,524 --> 00:07:59,644
Я передумал.
Отвезите меня на площадь Барберини.
34
00:08:09,667 --> 00:08:11,711
Так, значит, ты заинтересована в том,
чтобы работать на меня?
35
00:08:14,659 --> 00:08:16,113
Заинтересована!
36
00:08:17,019 --> 00:08:18,893
Ты не пожалеешь, Виттория.
37
00:08:23,886 --> 00:08:25,886
На днях у тебя будет возможность?
38
00:08:26,935 --> 00:08:29,729
От многого зависит. Возможно,
я смогу каждый день.
39
00:08:30,000 --> 00:08:31,372
Чудесно!
40
00:08:31,556 --> 00:08:33,381
Значит, пятьдесят на пятьдесят.
41
00:08:33,501 --> 00:08:35,232
Хорошо?
42
00:08:36,628 --> 00:08:38,459
Ты согласна?
43
00:08:38,946 --> 00:08:41,581
- На что?
- Пятьдесят процентов тебе...
44
00:08:41,799 --> 00:08:44,737
...и пятьдесят мне. Это же справедливо.
45
00:08:47,943 --> 00:08:49,498
Конечно!
46
00:08:54,120 --> 00:08:57,301
А могу я спросить тебя,
почему ты решилась...
47
00:08:57,865 --> 00:08:59,597
...на такой опыт?
48
00:09:02,675 --> 00:09:05,054
Когда кто-то говорит об опыте...
Огромное спасибо Антону Каптелову за перевод и rotorovv за исходный ДВД!
Вы не можете начинать темы
Вы не можете отвечать на сообщения
Вы не можете редактировать свои сообщения
Вы не можете удалять свои сообщения
Вы не можете голосовать в опросах
Вы не можете прикреплять файлы к сообщениям
Вы можете скачивать файлы
!ВНИМАНИЕ!

Сайт не предоставляет электронные версии произведений, а занимается лишь коллекционированием и каталогизацией ссылок, присылаемых и публикуемых на форуме нашими читателями. Если вы являетесь правообладателем какого-либо представленного материала и не желаете, чтобы ссылка на него находилась в нашем каталоге, свяжитесь с нами, и мы незамедлительно удалим ее. Файлы для обмена на трекере предоставлены пользователями сайта, и администрация не несет ответственности за их содержание. Просьба не заливать файлы, защищенные авторскими правами, а также файлы нелегального содержания!

Искали программы, игры, дополнения, музыка mp3, аниме, аудио книги, журналы? Добро пожаловать на свободный торрент трекер Torrents, у нас можно скачать бесплатно, без смс и регистрации и прочих ограничений лучшие, отборные сборки программ, игр. Скачать торрентом не составит труда даже не опытному пользователю. Раздачи ежедневно обновляются, только лучшие и качественные раздачи, подробные описания и скриншоты. Огромная коллекция программ для работы со звуком, графикой, дизайном, а так же множество плагинов и инструментов к ним с подробной инструкцией и рекомендациями. Прошивки для навигаторов, карты. Разнообразные игры, для Windows, Linux. В коллекцие есть и старые игры любых жанров, Rpg, Action, Shooter, strategy Множество дополнений, модификаций, сценариев для популярных игр в жанре экш, рпг, гонки, стратегии, логические игры. Множество аддонов и сценариев для Microsoft Flight Simulator Большая коллекция книг, учебников. Если нет возможности купить печатное издание - смело скачивайте цифровую версию книги или, быть может, журнала. Не любите читать - можно загрузить бесплатно аудикнигу. Для веб дизайнеров и программистов так же найдется множество специализированного софта, таких как: редакторы с подсветкой, среды программирования, компоненты, системы управления базами данных, разнообразные скрипты и шаблоны. Не так давно у нас появился материал для автолюбителей и владельцев мото - оригинальные и неоригинальные каталоги запчастей, книги и журналы по ремонту и обслуживанию, видеоуроки, статьи по чип тюнингу, прошивкам. Процедура получения контента элементарная, достаточно просто скачать торрент файл и добавить его в загрузку в вашем торрент клиенте. Если у вас нет специального торрент клиента, вы можете его скачать у нас.