Metallica - Français Pour Une Nuit (Стефани Сонье) [2009, Франция, США, музыка, концерт, WEB-DL, HD (1080p, 720p), SD (480p)] Original 

Цитировать
Metallica - Français pour une nuit
8.952 / 10
- Год выпуска: 2009
Страна: Франция, США
Жанр: музыка, концерт
Продолжительность: 132 мин.
Перевод: Не требуется
Оригинальная аудиодорожка: Есть
Субтитры: Английские полные
Режиссёр: Стефани Сонье
Оператор: Маджид Хакими
Композитор: Metallica
В ролях: Джеймс Хетфилд, Ларс Ульрих, Кирк Хеммет, Роберт Трухильо
Мировая премьера: 23 ноября 2009
Описание: Live concert shot in Nimes, France and contains over 2 hours of Metallica's biggest and heaviest tracks. Filmed in July of 2009, the four horsemen of the apocalypse rode into (literally!) a Roman Coliseum and unleashed a mind-blowing set. Also includes a 37-minute interview with Metallica and videos from the audience.-Треклист:
1. Blackened
2. Creeping Death
3. Fuel
4. Harvester Of Sorrow
5. Fade To Black
6. Broken, Beat & Scarred
7. Cyanide
8. Sad But True
9. One
10. All Nightmare Long
11. The Day That Never Comes
12. Master Of Puppets
13. Dyers Eve
14. Nothing Else Matters
15. Enter Sandman
16. Stone Cold Crazy
17. Motorbreath
18. Seek And Destroy
19. Interviews-Качество исходника: WEB-DL (iTunes US)
Качество: WEB-DL
Тип: 480p 720p 1080p
Контейнер: m4v
Видео: 640х480 анаморф 853x480 at 25.000 fps, MPEG-4 AVC, ~1600 kbps avg
Видео: 958х720 анаморф 1277x720 at 25.000 fps, MPEG-4 AVC, ~4000 kbps avg
Видео: 1912х1076 at 25.000 fps, MPEG-4 AVC, ~5000 kbps avg
Аудио#1: English: 48 kHz, ААС, 2/0 (L,R), ~224.00 kbps avg |Blu-Ray|
Аудио#2: English: 48 kHz, ААС, 2/0 (L,R), ~160.00 kbps avg |iTunes US|
Аудио#3: English: 48 kHz, AC3, 3/2 (L,C,R,l,r) + LFE ch, ~640.00 kbps avg |Blu-Ray|
Субтитры №1: English: |Полные|-

iTunes Meta Tags for country us

Name: Francais Pour Une Nuit
Artist: Metallica
Genre: Concert Films
Release Date: 2009-11-23T08:00:00Z
Description: Live concert shot in Nimes, France and contains over 2 hours of Metallica's biggest and heaviest tracks. Filmed in July of 2009, the four horsemen of the apocalypse rode into (literally!) a Roman Coliseum and unleashed a mind-blowing set. Also includes a 37-minute interview with Metallica and videos from the audience.
Long Description: Live concert shot in Nimes, France and contains over 2 hours of Metallica's biggest and heaviest tracks. Filmed in July of 2009, the four horsemen of the apocalypse rode into (literally!) a Roman Coliseum and unleashed a mind-blowing set. Also includes a 37-minute interview with Metallica and videos from the audience.
Rating: Unrated
Studio: Metallica
Cast: Джеймс Хетфилд, Ларс Ульрих, Кирк Хеммет, Роберт Трухильо
Director: Стефани Сонье
Copyright: © 2013 Blackened Recordings
contentID: 674290174
XID: blackenedrecordings:vendor_id:856115004453
Sort Name: Francais Pour Une Nuit

MediaInfo 480p Release

General
Complete name : Francais Pour Une Nuit.m4v
Format : MPEG-4
Codec ID : M4V
File size : 2.22 GiB
Duration : 2h 49mn
Overall bit rate mode : Variable
Overall bit rate : 1 873 Kbps
Movie name : Francais Pour Une Nuit
Performer : Metallica
Genre : Concert Films
ContentType : Short Film
Description : Live concert shot in Nimes, France and contains over 2 hours of Metallica's biggest and heaviest tracks. Filmed in July of 2009, the four horsemen of the apocalypse rode into (literally!) a Roman Coliseum and unleashed a mind-blowing set. Also includes a 37-minute interview with Metallica and videos from the audience.
Recorded date : UTC 2009-11-23 08:00:00
Encoded date : UTC 2015-02-08 20:15:17
Tagged date : UTC 2015-02-08 20:26:00
Copyright : © 2013 Blackened Recordings
Cover : Yes
Rating : None
Title/Sort : Francais Pour Une Nuit
LongDescription : Live concert shot in Nimes, France and contains over 2 hours of Metallica's biggest and heaviest tracks. Filmed in July of 2009, the four horsemen of the apocalypse rode into (literally!) a Roman Coliseum and unleashed a mind-blowing set. Also includes a 37-minute interview with Metallica and videos from the audience.
AppleStoreCatalogID : 674290174
AlbumTitleID : 3996865
GenreID : 4422
Vendor : blackenedrecordings:vendor_id:856115004453
ContentRating : mpaa|Unrated|???|
iTunMOVI :  /  /  /  /  cast /   /    /    name /    Джеймс Хетфилд /    /    /    name /    Ларс Ульрих /    /    /    name /    Кирк Хеммет /    /    /    name /    Роберт Трухильо /    /   /  directors /   /    /    name /    Стефани Сонье /    /   /  studio /  Metallica /  /
Video #1
ID : 1
Format : AVC
Format/Info : Advanced Video Codec
Format profile : Baseline@L3.0
Format settings, CABAC : No
Format settings, ReFrames : 1 frame
Codec ID : avc1
Codec ID/Info : Advanced Video Coding
Duration : 2h 49mn
Source duration : 2h 49mn
Width : 640 pixels
Height : 480 pixels
Display aspect ratio : 16:9
Frame rate mode : Constant
Frame rate : 25.000 fps
Color space : YUV
Chroma subsampling : 4:2:0
Bit depth : 8 bits
Scan type : Progressive
Source stream size : 1.91 GiB (86%)
Language : English
Encoded date : UTC 2015-02-08 20:15:18
Tagged date : UTC 2015-02-08 20:25:05
Color primaries : BT.601 NTSC
Transfer characteristics : BT.709
Matrix coefficients : BT.601
Video #2
ID : 5
Format : JPEG
Codec ID : jpeg
Duration : 2h 49mn
Source duration : 2h 12mn
Bit rate mode : Variable
Bit rate : 6 387 bps
Width : 640 pixels
Height : 360 pixels
Display aspect ratio : 16:9
Frame rate mode : Variable
Frame rate : 0.003 fps
Minimum frame rate : 0.001 fps
Maximum frame rate : 0.013 fps
Color space : YUV
Chroma subsampling : 4:4:4
Bit depth : 8 bits
Compression mode : Lossy
Bits/(Pixel*Frame) : 9.240
Stream size : 5.08 MiB (0%)
Source stream size : 5.08 MiB (0%)
Language : English
Encoded date : UTC 2015-02-08 20:15:18
Tagged date : UTC 2015-02-08 20:20:56
Audio #1
ID : 2
Format : AAC
Format/Info : Advanced Audio Codec
Format profile : LC
Codec ID : 40
Duration : 2h 49mn
Bit rate mode : Variable
Bit rate : 132 Kbps
Maximum bit rate : 215 Kbps
Channel(s) : 2 channels
Channel positions : Front: L R
Sampling rate : 48.0 KHz
Compression mode : Lossy
Stream size : 158 MiB (7%)
Language : English
Encoded date : UTC 2015-02-08 20:15:17
Tagged date : UTC 2015-02-08 20:15:30
Audio #2
ID : 3
Format : AAC
Format/Info : Advanced Audio Codec
Format profile : LC
Codec ID : 40
Duration : 2h 49mn
Source duration : 2h 49mn
Bit rate mode : Variable
Nominal bit rate : 121 Kbps
Maximum bit rate : 191 Kbps
Channel(s) : 2 channels
Channel positions : Front: L R
Sampling rate : 44.1 KHz
Compression mode : Lossy
Source stream size : 147 MiB (6%)
Language : English
Encoded date : UTC 2015-02-08 20:15:18
Tagged date : UTC 2015-02-08 20:25:05
Text
ID : 4
Format : Timed Text
Muxing mode : sbtl
Codec ID : tx3g
Duration : 2h 49mn
Source duration : 2h 49mn
Bit rate mode : Variable
Bit rate : 4 bps
Stream size : 4.58 KiB (0%)
Source stream size : 4.58 KiB (0%)
Language : English
Encoded date : UTC 2015-02-08 20:15:18
Tagged date : UTC 2015-02-08 20:25:03
Menu #1
00:00:00.000 : Opening sequence
00:02:40.000 : Blackened
00:08:19.000 : Creeping Death
00:14:41.000 : Fuel
00:18:55.000 : Harvester Of Sorrow
00:25:17.000 : Fade To Black
00:32:56.000 : Broken, Beat & Scarred
00:40:29.000 : Cyanide
00:47:38.000 : Sad But True
00:54:27.000 : One
01:02:12.000 : All Nightmare Long
01:09:59.000 : The Day That Never Comes
01:19:49.000 : Master Of Puppets
01:28:17.000 : Dyers Eve
01:33:36.000 : Nothing Else Matters
01:41:28.000 : Enter Sandman
01:49:34.000 : Stone Cold Crazy
01:53:13.000 : Motorbreath
01:57:06.000 : Seek And Destroy
02:10:47.000 : Closing credits
02:12:06.000 : Interviews
Menu #2
ID : 6
Codec ID : text
Duration : 2h 49mn
Language : English
Encoded date : UTC 2015-02-08 20:25:05
Tagged date : UTC 2015-02-08 20:25:05
00:00:00.000 : Opening sequence
00:02:40.000 : Blackened
00:08:19.000 : Creeping Death
00:14:41.000 : Fuel
00:18:55.000 : Harvester Of Sorrow
00:25:17.000 : Fade To Black
00:32:56.000 : Broken, Beat & Scarred
00:40:29.000 : Cyanide
00:47:38.000 : Sad But True
00:54:27.000 : One
01:02:12.000 : All Nightmare Long
01:09:59.000 : The Day That Never Comes
01:19:49.000 : Master Of Puppets
01:28:17.000 : Dyers Eve
01:33:36.000 : Nothing Else Matters
01:41:28.000 : Enter Sandman
01:49:34.000 : Stone Cold Crazy
01:53:13.000 : Motorbreath
01:57:06.000 : Seek And Destroy
02:10:47.000 : Closing credits
02:12:06.000 : Interviews
Bit rate mode : VBR

MediaInfo 720p Release

General
Complete name : Francais Pour Une Nuit (HD).m4v
Format : MPEG-4
Codec ID : M4V
File size : 5.90 GiB
Duration : 2h 49mn
Overall bit rate mode : Variable
Overall bit rate : 4 982 Kbps
Movie name : Francais Pour Une Nuit
Performer : Metallica
Genre : Concert Films
ContentType : Short Film
Description : Live concert shot in Nimes, France and contains over 2 hours of Metallica's biggest and heaviest tracks. Filmed in July of 2009, the four horsemen of the apocalypse rode into (literally!) a Roman Coliseum and unleashed a mind-blowing set. Also includes a 37-minute interview with Metallica and videos from the audience.
Recorded date : UTC 2009-11-23 08:00:00
Encoded date : UTC 2015-02-07 22:26:04
Tagged date : UTC 2015-02-08 18:32:03
Copyright : © 2013 Blackened Recordings
Cover : Yes
Rating : None
Title/Sort : Francais Pour Une Nuit
LongDescription : Live concert shot in Nimes, France and contains over 2 hours of Metallica's biggest and heaviest tracks. Filmed in July of 2009, the four horsemen of the apocalypse rode into (literally!) a Roman Coliseum and unleashed a mind-blowing set. Also includes a 37-minute interview with Metallica and videos from the audience.
HDVideo : Yes
AppleStoreCatalogID : 674290174
AlbumTitleID : 3996865
GenreID : 4422
Vendor : blackenedrecordings:vendor_id:856115004453
ContentRating : mpaa|Unrated|???|
iTunMOVI :  /  /  /  /  cast /   /    /    name /    Джеймс Хетфилд /    /    /    name /    Ларс Ульрих /    /    /    name /    Кирк Хеммет /    /    /    name /    Роберт Трухильо /    /   /  directors /   /    /    name /    Стефани Сонье /    /   /  studio /  Metallica /  /
Video #1
ID : 1
Format : AVC
Format/Info : Advanced Video Codec
Format profile : Main@L3.1
Format settings, CABAC : No
Format settings, ReFrames : 2 frames
Codec ID : avc1
Codec ID/Info : Advanced Video Coding
Duration : 2h 49mn
Source duration : 2h 49mn
Width : 958 pixels
Height : 720 pixels
Display aspect ratio : 16:9
Frame rate mode : Constant
Frame rate : 25.000 fps
Color space : YUV
Chroma subsampling : 4:2:0
Bit depth : 8 bits
Scan type : Progressive
Source stream size : 4.69 GiB (79%)
Language : English
Encoded date : UTC 2015-02-07 22:26:04
Tagged date : UTC 2015-02-08 00:01:20
Color primaries : BT.709
Transfer characteristics : BT.709
Matrix coefficients : BT.709
Video #2
ID : 6
Format : JPEG
Codec ID : jpeg
Duration : 2h 49mn
Source duration : 2h 12mn
Bit rate mode : Variable
Bit rate : 6 387 bps
Width : 640 pixels
Height : 360 pixels
Display aspect ratio : 16:9
Frame rate mode : Variable
Frame rate : 0.003 fps
Minimum frame rate : 0.001 fps
Maximum frame rate : 0.013 fps
Color space : YUV
Chroma subsampling : 4:4:4
Bit depth : 8 bits
Compression mode : Lossy
Bits/(Pixel*Frame) : 9.240
Stream size : 5.08 MiB (0%)
Source stream size : 5.08 MiB (0%)
Language : English
Encoded date : UTC 2015-02-07 22:26:04
Tagged date : UTC 2015-02-07 23:28:04
Audio #1
ID : 2
Format : AAC
Format/Info : Advanced Audio Codec
Format profile : LC
Codec ID : 40
Duration : 2h 49mn
Bit rate mode : Variable
Bit rate : 223 Kbps
Maximum bit rate : 371 Kbps
Channel(s) : 2 channels
Channel positions : Front: L R
Sampling rate : 48.0 KHz
Compression mode : Lossy
Stream size : 270 MiB (4%)
Language : English
Encoded date : UTC 2015-02-07 22:26:04
Tagged date : UTC 2015-02-07 22:26:56
Audio #2
ID : 3
Format : AAC
Format/Info : Advanced Audio Codec
Format profile : LC
Codec ID : 40
Duration : 2h 49mn
Source duration : 2h 49mn
Bit rate mode : Variable
Bit rate : 151 Kbps
Maximum bit rate : 240 Kbps
Channel(s) : 2 channels
Channel positions : Front: L R
Sampling rate : 48.0 KHz
Compression mode : Lossy
Stream size : 183 MiB (3%)
Source stream size : 183 MiB (3%)
Language : English
Encoded date : UTC 2015-02-07 22:26:04
Tagged date : UTC 2015-02-08 00:01:20
Audio #3
ID : 4
Format : AC-3
Format/Info : Audio Coding 3
Mode extension : CM (complete main)
Format settings, Endianness : Big
Codec ID : ac-3
Duration : 2h 49mn
Bit rate mode : Constant
Bit rate : 640 Kbps
Channel(s) : 6 channels
Channel positions : Front: L C R, Side: L R, LFE
Sampling rate : 48.0 KHz
Bit depth : 16 bits
Compression mode : Lossy
Stream size : 776 MiB (13%)
Language : English
Encoded date : UTC 2015-02-07 22:26:04
Tagged date : UTC 2015-02-07 22:26:50
Text
ID : 5
Format : Timed Text
Muxing mode : sbtl
Codec ID : tx3g
Duration : 2h 49mn
Source duration : 2h 49mn
Bit rate mode : Variable
Bit rate : 4 bps
Stream size : 4.58 KiB (0%)
Source stream size : 4.58 KiB (0%)
Language : English
Encoded date : UTC 2015-02-07 22:26:04
Tagged date : UTC 2015-02-08 00:01:05
Menu #1
00:00:00.000 : Opening sequence
00:02:40.000 : Blackened
00:08:19.000 : Creeping Death
00:14:41.000 : Fuel
00:18:55.000 : Harvester Of Sorrow
00:25:17.000 : Fade To Black
00:32:56.000 : Broken, Beat & Scarred
00:40:29.000 : Cyanide
00:47:38.000 : Sad But True
00:54:27.000 : One
01:02:12.000 : All Nightmare Long
01:09:59.000 : The Day That Never Comes
01:19:49.000 : Master Of Puppets
01:28:17.000 : Dyers Eve
01:33:36.000 : Nothing Else Matters
01:41:28.000 : Enter Sandman
01:49:34.000 : Stone Cold Crazy
01:53:13.000 : Motorbreath
01:57:06.000 : Seek And Destroy
02:10:47.000 : Closing credits
02:12:06.000 : Interviews
Menu #2
ID : 7
Codec ID : text
Duration : 2h 49mn
Language : English
Encoded date : UTC 2015-02-08 00:01:20
Tagged date : UTC 2015-02-08 00:01:20
00:00:00.000 : Opening sequence
00:02:40.000 : Blackened
00:08:19.000 : Creeping Death
00:14:41.000 : Fuel
00:18:55.000 : Harvester Of Sorrow
00:25:17.000 : Fade To Black
00:32:56.000 : Broken, Beat & Scarred
00:40:29.000 : Cyanide
00:47:38.000 : Sad But True
00:54:27.000 : One
01:02:12.000 : All Nightmare Long
01:09:59.000 : The Day That Never Comes
01:19:49.000 : Master Of Puppets
01:28:17.000 : Dyers Eve
01:33:36.000 : Nothing Else Matters
01:41:28.000 : Enter Sandman
01:49:34.000 : Stone Cold Crazy
01:53:13.000 : Motorbreath
01:57:06.000 : Seek And Destroy
02:10:47.000 : Closing credits
02:12:06.000 : Interviews
Bit rate mode : VBR

MediaInfo 1080p Release

General
Complete name : Francais Pour Une Nuit (1080p HD).m4v
Format : MPEG-4
Codec ID : M4V
File size : 7.11 GiB
Duration : 2h 49mn
Overall bit rate mode : Variable
Overall bit rate : 6 001 Kbps
Movie name : Francais Pour Une Nuit
Performer : Metallica
Genre : Concert Films
ContentType : Short Film
Description : Live concert shot in Nimes, France and contains over 2 hours of Metallica's biggest and heaviest tracks. Filmed in July of 2009, the four horsemen of the apocalypse rode into (literally!) a Roman Coliseum and unleashed a mind-blowing set. Also includes a 37-minute interview with Metallica and videos from the audience.
Recorded date : UTC 2009-11-23 08:00:00
Encoded date : UTC 2015-02-08 19:14:35
Tagged date : UTC 2015-02-08 19:49:59
Copyright : © 2013 Blackened Recordings
Cover : Yes
Rating : None
Title/Sort : Francais Pour Une Nuit
LongDescription : Live concert shot in Nimes, France and contains over 2 hours of Metallica's biggest and heaviest tracks. Filmed in July of 2009, the four horsemen of the apocalypse rode into (literally!) a Roman Coliseum and unleashed a mind-blowing set. Also includes a 37-minute interview with Metallica and videos from the audience.
AppleStoreCatalogID : 674290174
AlbumTitleID : 3996865
GenreID : 4422
Vendor : blackenedrecordings:vendor_id:856115004453
ContentRating : mpaa|Unrated|???|
iTunMOVI :  /  /  /  /  cast /   /    /    name /    Джеймс Хетфилд /    /    /    name /    Ларс Ульрих /    /    /    name /    Кирк Хеммет /    /    /    name /    Роберт Трухильо /    /   /  directors /   /    /    name /    Стефани Сонье /    /   /  studio /  Metallica /  /
Video #1
ID : 1
Format : AVC
Format/Info : Advanced Video Codec
Format profile : High@L4.0
Format settings, CABAC : Yes
Format settings, ReFrames : 4 frames
Codec ID : avc1
Codec ID/Info : Advanced Video Coding
Duration : 2h 49mn
Source duration : 2h 49mn
Width : 1 912 pixels
Height : 1 076 pixels
Display aspect ratio : 16:9
Frame rate mode : Constant
Frame rate : 25.000 fps
Color space : YUV
Chroma subsampling : 4:2:0
Bit depth : 8 bits
Scan type : Progressive
Source stream size : 5.89 GiB (83%)
Language : English
Encoded date : UTC 2015-02-08 19:14:36
Tagged date : UTC 2015-02-08 19:33:56
Color primaries : BT.709
Transfer characteristics : BT.709
Matrix coefficients : BT.709
Video #2
ID : 6
Format : JPEG
Codec ID : jpeg
Duration : 2h 49mn
Source duration : 2h 12mn
Bit rate mode : Variable
Bit rate : 6 387 bps
Width : 640 pixels
Height : 360 pixels
Display aspect ratio : 16:9
Frame rate mode : Variable
Frame rate : 0.003 fps
Minimum frame rate : 0.001 fps
Maximum frame rate : 0.013 fps
Color space : YUV
Chroma subsampling : 4:4:4
Bit depth : 8 bits
Compression mode : Lossy
Bits/(Pixel*Frame) : 9.240
Stream size : 5.08 MiB (0%)
Source stream size : 5.08 MiB (0%)
Language : English
Encoded date : UTC 2015-02-08 19:14:36
Tagged date : UTC 2015-02-08 19:24:03
Audio #1
ID : 2
Format : AAC
Format/Info : Advanced Audio Codec
Format profile : LC
Codec ID : 40
Duration : 2h 49mn
Bit rate mode : Variable
Bit rate : 223 Kbps
Maximum bit rate : 371 Kbps
Channel(s) : 2 channels
Channel positions : Front: L R
Sampling rate : 48.0 KHz
Compression mode : Lossy
Stream size : 270 MiB (4%)
Language : English
Encoded date : UTC 2015-02-08 19:14:36
Tagged date : UTC 2015-02-08 19:16:06
Audio #2
ID : 3
Format : AAC
Format/Info : Advanced Audio Codec
Format profile : LC
Codec ID : 40
Duration : 2h 49mn
Source duration : 2h 49mn
Bit rate mode : Variable
Bit rate : 151 Kbps
Maximum bit rate : 240 Kbps
Channel(s) : 2 channels
Channel positions : Front: L R
Sampling rate : 48.0 KHz
Compression mode : Lossy
Stream size : 183 MiB (3%)
Source stream size : 183 MiB (3%)
Language : English
Encoded date : UTC 2015-02-08 19:14:36
Tagged date : UTC 2015-02-08 19:33:56
Audio #3
ID : 4
Format : AC-3
Format/Info : Audio Coding 3
Mode extension : CM (complete main)
Format settings, Endianness : Big
Codec ID : ac-3
Duration : 2h 49mn
Bit rate mode : Constant
Bit rate : 640 Kbps
Channel(s) : 6 channels
Channel positions : Front: L C R, Side: L R, LFE
Sampling rate : 48.0 KHz
Bit depth : 16 bits
Compression mode : Lossy
Stream size : 776 MiB (11%)
Language : English
Encoded date : UTC 2015-02-08 19:14:36
Tagged date : UTC 2015-02-08 19:15:51
Text
ID : 5
Format : Timed Text
Muxing mode : sbtl
Codec ID : tx3g
Duration : 2h 49mn
Source duration : 2h 49mn
Bit rate mode : Variable
Bit rate : 4 bps
Stream size : 4.58 KiB (0%)
Source stream size : 4.58 KiB (0%)
Language : English
Encoded date : UTC 2015-02-08 19:14:36
Tagged date : UTC 2015-02-08 19:33:54
Menu #1
00:00:00.000 : Opening sequence
00:02:40.000 : Blackened
00:08:19.000 : Creeping Death
00:14:41.000 : Fuel
00:18:55.000 : Harvester Of Sorrow
00:25:17.000 : Fade To Black
00:32:56.000 : Broken, Beat & Scarred
00:40:29.000 : Cyanide
00:47:38.000 : Sad But True
00:54:27.000 : One
01:02:12.000 : All Nightmare Long
01:09:59.000 : The Day That Never Comes
01:19:49.000 : Master Of Puppets
01:28:17.000 : Dyers Eve
01:33:36.000 : Nothing Else Matters
01:41:28.000 : Enter Sandman
01:49:34.000 : Stone Cold Crazy
01:53:13.000 : Motorbreath
01:57:06.000 : Seek And Destroy
02:10:47.000 : Closing credits
02:12:06.000 : Interviews
Menu #2
ID : 7
Codec ID : text
Duration : 2h 49mn
Language : English
Encoded date : UTC 2015-02-08 19:33:56
Tagged date : UTC 2015-02-08 19:33:56
00:00:00.000 : Opening sequence
00:02:40.000 : Blackened
00:08:19.000 : Creeping Death
00:14:41.000 : Fuel
00:18:55.000 : Harvester Of Sorrow
00:25:17.000 : Fade To Black
00:32:56.000 : Broken, Beat & Scarred
00:40:29.000 : Cyanide
00:47:38.000 : Sad But True
00:54:27.000 : One
01:02:12.000 : All Nightmare Long
01:09:59.000 : The Day That Never Comes
01:19:49.000 : Master Of Puppets
01:28:17.000 : Dyers Eve
01:33:36.000 : Nothing Else Matters
01:41:28.000 : Enter Sandman
01:49:34.000 : Stone Cold Crazy
01:53:13.000 : Motorbreath
01:57:06.000 : Seek And Destroy
02:10:47.000 : Closing credits
02:12:06.000 : Interviews
Bit rate mode : VBR

Скриншоты 480p Release

Скриншоты 720p Release

Скриншоты 1080p Release

-

Релиз подготовлен для просмотра на Apple TV, iPad, iPhone, iPod Touch.
Для просмотра данного релиза на компьютере с ОС Windows рекомендуется использовать VLC media player
Вы не можете начинать темы
Вы не можете отвечать на сообщения
Вы не можете редактировать свои сообщения
Вы не можете удалять свои сообщения
Вы не можете голосовать в опросах
Вы не можете прикреплять файлы к сообщениям
Вы можете скачивать файлы
!ВНИМАНИЕ!

Сайт не предоставляет электронные версии произведений, а занимается лишь коллекционированием и каталогизацией ссылок, присылаемых и публикуемых на форуме нашими читателями. Если вы являетесь правообладателем какого-либо представленного материала и не желаете, чтобы ссылка на него находилась в нашем каталоге, свяжитесь с нами, и мы незамедлительно удалим ее. Файлы для обмена на трекере предоставлены пользователями сайта, и администрация не несет ответственности за их содержание. Просьба не заливать файлы, защищенные авторскими правами, а также файлы нелегального содержания!

Искали программы, игры, дополнения, музыка mp3, аниме, аудио книги, журналы? Добро пожаловать на свободный торрент трекер Torrents, у нас можно скачать бесплатно, без смс и регистрации и прочих ограничений лучшие, отборные сборки программ, игр. Скачать торрентом не составит труда даже не опытному пользователю. Раздачи ежедневно обновляются, только лучшие и качественные раздачи, подробные описания и скриншоты. Огромная коллекция программ для работы со звуком, графикой, дизайном, а так же множество плагинов и инструментов к ним с подробной инструкцией и рекомендациями. Прошивки для навигаторов, карты. Разнообразные игры, для Windows, Linux. В коллекцие есть и старые игры любых жанров, Rpg, Action, Shooter, strategy Множество дополнений, модификаций, сценариев для популярных игр в жанре экш, рпг, гонки, стратегии, логические игры. Множество аддонов и сценариев для Microsoft Flight Simulator Большая коллекция книг, учебников. Если нет возможности купить печатное издание - смело скачивайте цифровую версию книги или, быть может, журнала. Не любите читать - можно загрузить бесплатно аудикнигу. Для веб дизайнеров и программистов так же найдется множество специализированного софта, таких как: редакторы с подсветкой, среды программирования, компоненты, системы управления базами данных, разнообразные скрипты и шаблоны. Не так давно у нас появился материал для автолюбителей и владельцев мото - оригинальные и неоригинальные каталоги запчастей, книги и журналы по ремонту и обслуживанию, видеоуроки, статьи по чип тюнингу, прошивкам. Процедура получения контента элементарная, достаточно просто скачать торрент файл и добавить его в загрузку в вашем торрент клиенте. Если у вас нет специального торрент клиента, вы можете его скачать у нас.