(Progressive Rock) [WEB] Legacy Pilots - Con Brio - 2018, FLAC (tracks), lossless 

Цитировать
Legacy Pilots / Con Brio
Жанр: Progressive Rock
Носитель: WEB
Год издания: 2018
Страна исполнителя (группы): Germany
Аудиокодек: FLAC (*.flac)
Тип рипа: tracks
Битрейт аудио: lossless
Продолжительность: 50:56
Источник (релизер): Bandcamp
Наличие сканов в содержимом раздачи: PDF

01. The Emerson Empire [00:07:05]
02. Handle With Care [00:04:09]
03. Value 8 [00:03:54]
04. The Stumbling Heart [00:08:31]
05. No Place For Us [00:05:10]
06. The Spirit Is Forever [00:05:27]
07. Fight The Demons [00:08:08]
08. For A Better World [00:03:05]
09. Con Brio [00:05:23]
Released September 24, 2018--

Состав

Frank Us - Keyboards, Guitars, Vocals, Bass & Percussion (8)
With:
Todd Sucherman (Styx) - Drums (4, 7)
Marco Minnemann (Steven Wilson, The Aristocrats, Mike Keneally) - Drums (1, 3, 5, 9)
Steve Morse (Deep Purple, Kansas, Flying Colors, Dixie Dregs) - Solo Guitar & Choired Guitars (3)
John Mitchell (Arena, Frost*, It Bites, Kino, Lonely Robot) - Solo Guitar (4)
Steven Rothery (Marillion) - Solo Guitar (7)
Finally George - Bass (1, 4, 5, 7), Guitars (4, 8), Choir (4)
Ricky Garcia - Guitars (1, 5)
Lars Slowak - Bass (2, 3)
Andrew McGuinness - Drums (6)
Mark Kelly (Marillion) - Synth Solo (6)
Bill Evans (Miles Davis) - Outro Guitar Solo (6)
Liza - Choir (7-8)

Лог проверки качества

-----------------------
DON'T MODIFY THIS FILE
-----------------------
PERFORMER: auCDtect Task Manager, ver. 1.6.0 RC1 build 1.6.0.1Copyright (c) 2008-2010 y-soft. All rights reservedhttp://y-soft.org
ANALYZER: auCDtect: CD records authenticity detector, version 0.8.2Copyright (c) 2004 Oleg Berngardt. All rights reserved.Copyright (c) 2004 Alexander Djourik. All rights reserved.
FILE: 09. Con Brio.flac Size: 34986787 Hash: 4104AA68F6E42CF032317C83F9E85090 Accuracy: -m0 Conclusion: CDDA 100% Signature: 6BF0695845D02F07CC99DB587E72F1500F0506E5FILE: 08. For A Better World.flac Size: 19926241 Hash: 627510D0B07B93D3130EBE5C4DA3FD66 Accuracy: -m0 Conclusion: CDDA 100% Signature: 7D448B5067F244F1BDE12DD463DCB445E71BDAECFILE: 07. Fight The Demons.flac Size: 56861955 Hash: 48B0D2A283E7045AB1BCDE42A531C551 Accuracy: -m0 Conclusion: CDDA 100% Signature: 0735706AB5E4578C97635EA4222CE516B967FCEAFILE: 06. The Spirit Is Forever.flac Size: 37416781 Hash: 2B0B1C1FFFB8ADD5B0B40CE2C315A63A Accuracy: -m0 Conclusion: CDDA 100% Signature: 176DBEBB4F3AC54CDD76B1E87D400F6AE0897D6CFILE: 05. No Place For Us.flac Size: 34980209 Hash: A2E48701423D401AC3A719F0AB11D1E9 Accuracy: -m0 Conclusion: CDDA 100% Signature: 63FAA88A462C3F4A104EEA80ADAB42215C276384FILE: 04. The Stumbling Heart.flac Size: 60572142 Hash: E1B9B8044FC9BEEE843D743A9FB965C2 Accuracy: -m0 Conclusion: CDDA 100% Signature: 4D03864B9A5F19D41A6E7F7DE1D627CB087B255FFILE: 03. Value 8.flac Size: 27297457 Hash: 3B5E51FB2C4B0054684889BE36A6911B Accuracy: -m0 Conclusion: CDDA 100% Signature: 1C2BCFA64635202A90616B1983D137F1423EBC6BFILE: 02. Handle With Care.flac Size: 27291734 Hash: C8DB2D9FEB7A53C697F20C1ED01D850D Accuracy: -m0 Conclusion: CDDA 100% Signature: 632168A859850889736D333057DFEC0A9ABC2219FILE: 01. The Emerson Empire.flac Size: 52891904 Hash: DBFABEA271F3DFC5254E164F3081BD17 Accuracy: -m0 Conclusion: CDDA 100% Signature: 3776A4D83799E3398029E3FB853FF4D15CEAD2C6

DRM log

foobar2000 1.3.12 / Dynamic Range Meter 1.1.1log date: 2018-10-16 06:36:18
--------------------------------------------------------------------------------Analyzed: Legacy Pilots / Con Brio--------------------------------------------------------------------------------
DR Peak RMS Duration Track--------------------------------------------------------------------------------DR6 0.00 dB -7.88 dB 7:05 01-The Emerson EmpireDR8 0.00 dB -10.70 dB 4:09 02-Handle With CareDR6 0.00 dB -8.00 dB 3:55 03-Value 8DR7 0.00 dB -9.32 dB 8:31 04-The Stumbling HeartDR7 0.00 dB -9.82 dB 5:11 05-No Place For UsDR9 0.00 dB -10.66 dB 5:28 06-The Spirit Is ForeverDR6 0.00 dB -8.95 dB 8:09 07-Fight The DemonsDR8 0.00 dB -10.15 dB 3:06 08-For A Better WorldDR7 0.00 dB -10.79 dB 5:23 09-Con Brio--------------------------------------------------------------------------------
Number of tracks: 9Official DR value: DR7
Samplerate: 44100 HzChannels: 2Bits per sample: 16Bitrate: 865 kbpsCodec: FLAC================================================================================
--
Вы не можете начинать темы
Вы не можете отвечать на сообщения
Вы не можете редактировать свои сообщения
Вы не можете удалять свои сообщения
Вы не можете голосовать в опросах
Вы не можете прикреплять файлы к сообщениям
Вы можете скачивать файлы
!ВНИМАНИЕ!

Сайт не предоставляет электронные версии произведений, а занимается лишь коллекционированием и каталогизацией ссылок, присылаемых и публикуемых на форуме нашими читателями. Если вы являетесь правообладателем какого-либо представленного материала и не желаете, чтобы ссылка на него находилась в нашем каталоге, свяжитесь с нами, и мы незамедлительно удалим ее. Файлы для обмена на трекере предоставлены пользователями сайта, и администрация не несет ответственности за их содержание. Просьба не заливать файлы, защищенные авторскими правами, а также файлы нелегального содержания!

Искали программы, игры, дополнения, музыка mp3, аниме, аудио книги, журналы? Добро пожаловать на свободный торрент трекер Torrents, у нас можно скачать бесплатно, без смс и регистрации и прочих ограничений лучшие, отборные сборки программ, игр. Скачать торрентом не составит труда даже не опытному пользователю. Раздачи ежедневно обновляются, только лучшие и качественные раздачи, подробные описания и скриншоты. Огромная коллекция программ для работы со звуком, графикой, дизайном, а так же множество плагинов и инструментов к ним с подробной инструкцией и рекомендациями. Прошивки для навигаторов, карты. Разнообразные игры, для Windows, Linux. В коллекцие есть и старые игры любых жанров, Rpg, Action, Shooter, strategy Множество дополнений, модификаций, сценариев для популярных игр в жанре экш, рпг, гонки, стратегии, логические игры. Множество аддонов и сценариев для Microsoft Flight Simulator Большая коллекция книг, учебников. Если нет возможности купить печатное издание - смело скачивайте цифровую версию книги или, быть может, журнала. Не любите читать - можно загрузить бесплатно аудикнигу. Для веб дизайнеров и программистов так же найдется множество специализированного софта, таких как: редакторы с подсветкой, среды программирования, компоненты, системы управления базами данных, разнообразные скрипты и шаблоны. Не так давно у нас появился материал для автолюбителей и владельцев мото - оригинальные и неоригинальные каталоги запчастей, книги и журналы по ремонту и обслуживанию, видеоуроки, статьи по чип тюнингу, прошивкам. Процедура получения контента элементарная, достаточно просто скачать торрент файл и добавить его в загрузку в вашем торрент клиенте. Если у вас нет специального торрент клиента, вы можете его скачать у нас.