(Neo progressive) [CD] Ad Astra - Surface of Last Scattering (2015), FLAC (image+.cue+artwork), lossless 

Цитировать
Ad Astra - Surface of Last Scattering
Жанр: Neo Progressive
Страна: USA
Год издания диска: 2015
Label: self release © Bowers & Flynn
Catalog Nr.: No
Тип рипа: image+.cue(test&copy)
Битрейт аудио: lossless
Продолжительность: 50:09
Источник (автор рипа): свой рип

Треклист:
1. Surface of Last Scattering (11:01)
2. Lament (6:52)
3. Cradle to Grave to Life - Part 1: Cradle / Grief (9:22)
4. Cradle to Grave to Life - Part 2: Grave / Recognition (7:24)
5. Cradle to Grave to Life - Part 3: Life / Redemption (4:35)
6. A Gift of Peace (1:44)
7. Pathways (9:11)
Total Time: 50:09
Доп. информация: Второй альбом двухальбомного творческого пути американских музыкантов.

Музыканты

Doug Bowers – Lead and Backing Vocals; Keyboards, Programming; Guitars; Bass Guitar, Percussion
Christopher Flynn – Lead and Backing Vocals; Guitars; Bass Guitar, Woodwinds
With:
Henry Jablonski – Bass; Vocals
Jeremy Ribando – Vocals
Mitch Rall – Percussion
Chuck Tidwell – Guitars

EAC log

Exact Audio Copy V1.1 from 23. June 2015
EAC extraction logfile from 20. July 2016, 21:27
Ad Astra / Surface of Last Scattering
Used drive : TEAC CD-W516EB Adapter: 1 ID: 1
Read mode : SecureUtilize accurate stream : YesDefeat audio cache : YesMake use of C2 pointers : No
Read offset correction : 685Overread into Lead-In and Lead-Out : NoFill up missing offset samples with silence : YesDelete leading and trailing silent blocks : NoNull samples used in CRC calculations : YesUsed interface : Native Win32 interface for Win NT & 2000
Used output format : User Defined EncoderSelected bitrate : 1024 kBit/sQuality : HighAdd ID3 tag : YesCommand line compressor : C:\Program Files (x86)\FLAC_1.3.1\win64\flac.exeAdditional command line options : -6 -V -T "ARTIST=%artist%" -T "TITLE=%title%" -T "ALBUM=%albumtitle%" -T "DATE=%year%" -T "TRACKNUMBER=%tracknr%" -T "GENRE=%genre%" -T "COMMENT=ripped by wurensh for rutracker.org" %source% -o %dest%
TOC of the extracted CD
Track | Start | Length | Start sector | End sector --------------------------------------------------------- 1 | 0:00.00 | 11:01.00 | 0 | 49574 2 | 11:01.00 | 6:52.00 | 49575 | 80474 3 | 17:53.00 | 9:21.61 | 80475 | 122610 4 | 27:14.61 | 7:24.09 | 122611 | 155919 5 | 34:38.70 | 4:35.05 | 155920 | 176549 6 | 39:14.00 | 1:44.26 | 176550 | 184375 7 | 40:58.26 | 9:11.14 | 184376 | 225714
Range status and errors
Selected range
Filename Y:\EAC\wurensh\Ad Astra\Ad Astra - Surface of Last Scattering.wav
Peak level 97.7 % Extraction speed 7.3 X Range quality 100.0 % Test CRC 1764C80A Copy CRC 1764C80A Copy OK
No errors occurred
AccurateRip summary
Track 1 not present in databaseTrack 2 not present in databaseTrack 3 not present in databaseTrack 4 not present in databaseTrack 5 not present in databaseTrack 6 not present in databaseTrack 7 not present in database
None of the tracks are present in the AccurateRip database
End of status report
---- CUETools DB Plugin V2.1.6
[CTDB TOCID: O5q2CAeoH.idyDPy.t53YABIeUc-] disk not present in databaseSubmit result: O5q2CAeoH.idyDPy.t53YABIeUc- has been uploaded
==== Log checksum 194DA493CB0DF2C95299218E218EE4D8E8126E5E3EAF6197AA20D1CE6A255798 ====

CUE sheet

REM GENRE "Progressive Rock"REM DATE 2015REM DISCID 540BC107REM COMMENT "ExactAudioCopy v1.1"PERFORMER "Ad Astra"TITLE "Surface of Last Scattering"FILE "Ad Astra - Surface of Last Scattering.flac" WAVE  TRACK 01 AUDIO    TITLE "Surface of Last Scattering"    PERFORMER "Ad Astra"    ISRC US72E1300001    FLAGS DCP    INDEX 01 00:00:00  TRACK 02 AUDIO    TITLE "Lament"    PERFORMER "Ad Astra"    ISRC US72E1300002    FLAGS DCP    INDEX 01 11:01:00  TRACK 03 AUDIO    TITLE "Cradle to Grave to Life - Part 1: Cradle"    PERFORMER "Ad Astra"    ISRC US72E1300003    FLAGS DCP    INDEX 01 17:53:00  TRACK 04 AUDIO    TITLE "Cradle to Grave to Life - Part 2: Grave"    PERFORMER "Ad Astra"    ISRC US72E1300004    FLAGS DCP    INDEX 01 27:14:61  TRACK 05 AUDIO    TITLE "Cradle to Grave to Life - Part 3: Life"    PERFORMER "Ad Astra"    ISRC US72E1300005    FLAGS DCP    INDEX 01 34:38:70  TRACK 06 AUDIO    TITLE "A Gift of Peace"    PERFORMER "Ad Astra"    ISRC US72E1300006    FLAGS DCP    INDEX 01 39:14:00  TRACK 07 AUDIO    TITLE "Pathways"    PERFORMER "Ad Astra"    ISRC US72E1300007    FLAGS DCP    INDEX 01 40:58:26

DRM log

foobar2000 1.3.8 / Dynamic Range Meter 1.1.1log date: 2018-10-21 19:59:17
--------------------------------------------------------------------------------Analyzed: Ad Astra / Surface of Last Scattering--------------------------------------------------------------------------------
DR Peak RMS Duration Track--------------------------------------------------------------------------------DR8 -0.20 dB -10.00 dB 11:01 01-Surface of Last ScatteringDR8 -0.20 dB -11.83 dB 6:52 02-LamentDR8 -0.20 dB -9.67 dB 9:22 03-Part 1: CradleDR8 -0.20 dB -9.50 dB 7:24 04-Part 2: GraveDR7 -0.20 dB -8.50 dB 4:35 05-Part 3: LifeDR10 -0.58 dB -12.48 dB 1:44 06-A Gift of PeaceDR7 -0.20 dB -9.16 dB 9:11 07-Pathways--------------------------------------------------------------------------------
Number of tracks: 7Official DR value: DR8
Samplerate: 44100 HzChannels: 2Bits per sample: 16Bitrate: 921 kbpsCodec: FLAC================================================================================

Accurate rip/CUEtools log

[CUETools log; Date: 21.10.2018 20:01:32; Version: 2.1.5][CTDB TOCID: O5q2CAeoH.idyDPy.t53YABIeUc-] found.        [ CTDBID ] Status        [98d11004] (1/1) Accurately rippedTrack | CTDB Status  1   | (1/1) Accurately ripped  2   | (1/1) Accurately ripped  3   | (1/1) Accurately ripped  4   | (1/1) Accurately ripped  5   | (1/1) Accurately ripped  6   | (1/1) Accurately ripped  7   | (1/1) Accurately ripped[AccurateRip ID: 000f2f96-0057fc80-540bc107] found.Track   [  CRC   |   V2   ] Status 01     [cdff293b|70ba71d3] (0+1/1) Accurately ripped 02     [3edac9ca|a098497c] (0+1/1) Accurately ripped 03     [20e7498d|1183d93c] (0+1/1) Accurately ripped 04     [77a06805|f4f5e333] (0+1/1) Accurately ripped 05     [abe09945|5455cacd] (0+1/1) Accurately ripped 06     [9716f0f3|9bbdc433] (0+1/1) Accurately ripped 07     [b6eda00e|c127169d] (0+1/1) Accurately ripped
Track Peak [ CRC32 ] [W/O NULL] [ LOG ] -- 97,7 [1764C80A] [5EADC08C] CRC32 01 97,7 [45315376] [10E9B89E] 02 97,7 [C6C345C8] [E5CA2756] 03 97,7 [AB6ADE22] [FA593450] 04 97,7 [CC0C6842] [109A0BA9] 05 97,7 [80B3AFD8] [FD6FEE92] 06 93,5 [1AC904ED] [F91A4FEB] 07 97,7 [1F818B4C] [ED7887C0]

TAU data

Progarchives info
Коврики 300dpi в комплекте.
Вы не можете начинать темы
Вы не можете отвечать на сообщения
Вы не можете редактировать свои сообщения
Вы не можете удалять свои сообщения
Вы не можете голосовать в опросах
Вы не можете прикреплять файлы к сообщениям
Вы можете скачивать файлы
!ВНИМАНИЕ!

Сайт не предоставляет электронные версии произведений, а занимается лишь коллекционированием и каталогизацией ссылок, присылаемых и публикуемых на форуме нашими читателями. Если вы являетесь правообладателем какого-либо представленного материала и не желаете, чтобы ссылка на него находилась в нашем каталоге, свяжитесь с нами, и мы незамедлительно удалим ее. Файлы для обмена на трекере предоставлены пользователями сайта, и администрация не несет ответственности за их содержание. Просьба не заливать файлы, защищенные авторскими правами, а также файлы нелегального содержания!

Искали программы, игры, дополнения, музыка mp3, аниме, аудио книги, журналы? Добро пожаловать на свободный торрент трекер Torrents, у нас можно скачать бесплатно, без смс и регистрации и прочих ограничений лучшие, отборные сборки программ, игр. Скачать торрентом не составит труда даже не опытному пользователю. Раздачи ежедневно обновляются, только лучшие и качественные раздачи, подробные описания и скриншоты. Огромная коллекция программ для работы со звуком, графикой, дизайном, а так же множество плагинов и инструментов к ним с подробной инструкцией и рекомендациями. Прошивки для навигаторов, карты. Разнообразные игры, для Windows, Linux. В коллекцие есть и старые игры любых жанров, Rpg, Action, Shooter, strategy Множество дополнений, модификаций, сценариев для популярных игр в жанре экш, рпг, гонки, стратегии, логические игры. Множество аддонов и сценариев для Microsoft Flight Simulator Большая коллекция книг, учебников. Если нет возможности купить печатное издание - смело скачивайте цифровую версию книги или, быть может, журнала. Не любите читать - можно загрузить бесплатно аудикнигу. Для веб дизайнеров и программистов так же найдется множество специализированного софта, таких как: редакторы с подсветкой, среды программирования, компоненты, системы управления базами данных, разнообразные скрипты и шаблоны. Не так давно у нас появился материал для автолюбителей и владельцев мото - оригинальные и неоригинальные каталоги запчастей, книги и журналы по ремонту и обслуживанию, видеоуроки, статьи по чип тюнингу, прошивкам. Процедура получения контента элементарная, достаточно просто скачать торрент файл и добавить его в загрузку в вашем торрент клиенте. Если у вас нет специального торрент клиента, вы можете его скачать у нас.