(Crossover Prog) [WEB] Jhimm - Дискография (3 релиза) - 2014-2018, FLAC (tracks), lossless 

Цитировать
-Jhimm / Дискография- -
Жанр: Crossover Prog
Носитель: WEB
Год издания: 2014-2018
Страна: United States
Аудиокодек: FLAC (*.flac)
Тип рипа: tracks
Битрейт аудио: lossless
Продолжительность: 43:00
Источник (релизер): jhimm.bandcamp.com
Наличие сканов в содержимом раздачи: нет

2014 - Between the Waves [43:00]

Tracklist:
01. Outside the Box (7:11)
02. Different Eyes (5:12)
03. About to Fall (6:40)
04. Part of Nothing (6:44)
05. Between the Waves (3:23)
06. Waiting for the Tide (2:28)
07. Everyday Dying (4:42)
08. Falling Down (6:41)
Line-up / Musicians:
All instruments and vocals by Jason Himmelberger

Лог проверки качества

-----------------------
DON'T MODIFY THIS FILE
-----------------------
PERFORMER: auCDtect Task Manager, ver. 1.5.1RC4 build 1.5.1.5Copyright (c) 2008-2010 y-soft. All rights reservedhttp://y-soft.org
ANALYZER: auCDtect: CD records authenticity detector, version 0.8.2Copyright (c) 2004 Oleg Berngardt. All rights reserved.Copyright (c) 2004 Alexander Djourik. All rights reserved.
FILE: jhimm - Between the Waves - 08 Falling Down.flac Size: 42132702 Hash: 0533A16756495EEB84FD5F21268C9D94 Accuracy: -m0 Conclusion: CDDA 100% Signature: 964AF0A0415D6F914796A1E4DAEA222F0A05D781FILE: jhimm - Between the Waves - 07 Everyday Dying.flac Size: 29716521 Hash: 3D473E663D00F1D8E8846167FDF2795B Accuracy: -m0 Conclusion: MPEG 95% Signature: 47D53F845ACBE58594C8AC0D058206F43D30F826FILE: jhimm - Between the Waves - 06 Waiting for the Tide.flac Size: 16307254 Hash: 90FB121398B8E872D5B864CBAEA63E35 Accuracy: -m0 Conclusion: MPEG 79% Signature: 6FD36B2B9C19BC40E4FD030A518E305A82D15098FILE: jhimm - Between the Waves - 05 Between the Waves.flac Size: 16787027 Hash: 28E6D83110CFB84AA09F35BE0BAAA546 Accuracy: -m0 Conclusion: CDDA 100% Signature: 3D0275F26A12F80C0A430E624629D8567A00A4EAFILE: jhimm - Between the Waves - 04 Part of Nothing.flac Size: 39263452 Hash: 36C128EADA8E51A2670A75AD531DD24E Accuracy: -m0 Conclusion: CDDA 100% Signature: 2BFACC1AF627E3EE45AE7F11BDB9CAD17E69A36DFILE: jhimm - Between the Waves - 03 About to Fall.flac Size: 40203928 Hash: 27DCBB12806A630C4FB5CB6A356532D4 Accuracy: -m0 Conclusion: CDDA 99% Signature: 8D0E149CC02D562A16D43DE7A6599901507A10BDFILE: jhimm - Between the Waves - 02 Different Eyes.flac Size: 33150911 Hash: 620B6F71A2EBE33F5058FFB3D636B48C Accuracy: -m0 Conclusion: CDDA 100% Signature: E10282780715B15B9EDA7102C8991E3F1F6668A9FILE: jhimm - Between the Waves - 01 Outside the Box.flac Size: 49043224 Hash: 5F535C88772D638D9C88896F096FEDD4 Accuracy: -m0 Conclusion: MPEG 95% Signature: 809113AE0A526EBB1FEEE6997127CA99A339537C

Спектрограммы



Лог DRM

foobar2000 1.3.9 / Dynamic Range Meter 1.1.1log date: 2018-09-26 22:40:22
--------------------------------------------------------------------------------Analyzed: jhimm / Between the Waves--------------------------------------------------------------------------------
DR Peak RMS Duration Track--------------------------------------------------------------------------------DR11 0.00 dB -13.58 dB 7:11 01-Outside the BoxDR10 0.00 dB -12.44 dB 5:12 02-Different EyesDR9 0.00 dB -13.67 dB 6:40 03-About to FallDR9 0.00 dB -12.86 dB 6:44 04-Part of NothingDR12 -0.07 dB -13.74 dB 3:23 05-Between the WavesDR8 -0.04 dB -10.34 dB 2:28 06-Waiting for the TideDR11 -0.22 dB -14.39 dB 4:42 07-Everyday DyingDR9 0.00 dB -12.95 dB 6:41 08-Falling Down--------------------------------------------------------------------------------
Number of tracks: 8Official DR value: DR10
Samplerate: 44100 HzChannels: 2Bits per sample: 16Bitrate: 835 kbpsCodec: FLAC================================================================================

2017 - The Golden Age of Nothing (Side 1 EP) [25:05]

Tracklist:
01. Seven Ages (5:16)
02. Meteor (6:24)
03. One of Us (5:44)
04. Dark Side of the Girl (7:41)
Line-up / Musicians:
All instruments and vocals by Jason Himmelberger

Лог проверки качества

-----------------------
DON'T MODIFY THIS FILE
-----------------------
PERFORMER: auCDtect Task Manager, ver. 1.6.0 RC1 build 1.6.0.1Copyright (c) 2008-2010 y-soft. All rights reservedhttp://y-soft.org
ANALYZER: auCDtect: CD records authenticity detector, version 0.8.2Copyright (c) 2004 Oleg Berngardt. All rights reserved.Copyright (c) 2004 Alexander Djourik. All rights reserved.
FILE: 04. Dark Side of the Girl.flac Size: 52379646 Hash: 135C96D3784DBD00E019A838808610F5 Accuracy: -m0 Conclusion: CDDA 100% Signature: AD8BD72C2DBEC20B9C9BA21B5C9B06E9DE6EA63AFILE: 03. One of Us.flac Size: 40927157 Hash: ED8067952BA7A7AE8E1600381F8FDA6A Accuracy: -m0 Conclusion: CDDA 100% Signature: 2AA4BFE7B3EF7B6E44CF740D7936161CCC58BE1BFILE: 02. Meteor.flac Size: 42659800 Hash: 73DE8A20A0FC2A412261B17D83EEF9D2 Accuracy: -m0 Conclusion: CDDA 99% Signature: 2B18A2649BA93B3FAE33E61CE3F69520368CF774FILE: 01. Seven Ages.flac Size: 38116931 Hash: 8CE46BD97BE439A3035020008644C4AC Accuracy: -m0 Conclusion: CDDA 100% Signature: A6F21AFDE5F8C59E9DA9C3E98C67BB93E1052DE2

Лог DRM

foobar2000 1.3.9 / Dynamic Range Meter 1.1.1log date: 2018-10-13 20:24:05
--------------------------------------------------------------------------------Analyzed: Jhimm / The Golden Age of Nothing (Side 1 EP)--------------------------------------------------------------------------------
DR Peak RMS Duration Track--------------------------------------------------------------------------------DR9 0.00 dB -11.12 dB 5:16 01-Seven AgesDR8 0.00 dB -10.45 dB 6:24 02-MeteorDR10 0.00 dB -12.76 dB 5:44 03-One of UsDR9 0.00 dB -11.97 dB 7:41 04-Dark Side of the Girl--------------------------------------------------------------------------------
Number of tracks: 4Official DR value: DR9
Samplerate: 44100 HzChannels: 2Bits per sample: 16Bitrate: 906 kbpsCodec: FLAC================================================================================

2018 - ADSR1 (EP) [14:58]

Tracklist:
01. Attack (The Heart) (4:00)
02. Decay (The Mind) (4:48)
03. Sustain (The Body) (2:08)
04. Release (The Soul) (4:01)
Line-up / Musicians:
All instruments and vocals by Jason Himmelberger

Лог проверки качества

-----------------------
DON'T MODIFY THIS FILE
-----------------------
PERFORMER: auCDtect Task Manager, ver. 1.6.0 RC1 build 1.6.0.1Copyright (c) 2008-2010 y-soft. All rights reservedhttp://y-soft.org
ANALYZER: auCDtect: CD records authenticity detector, version 0.8.2Copyright (c) 2004 Oleg Berngardt. All rights reserved.Copyright (c) 2004 Alexander Djourik. All rights reserved.
FILE: 04. Release (The Soul).flac Size: 25585871 Hash: 0321C238C1B12F02398794C5F55F1FE8 Accuracy: -m0 Conclusion: CDDA 100% Signature: 78DB5A7EF0C954FF4C0A308790869BDB18DCAC35FILE: 03. Sustain (The Body).flac Size: 11934161 Hash: DDEA8FB13839C04F82B1E270DD70B996 Accuracy: -m0 Conclusion: CDDA 100% Signature: FFB503C6CBBDBC4AFB443BE00D4FF81E0C361EEEFILE: 02. Decay (The Mind).flac Size: 25628219 Hash: 8036E7C5BEEFCD099D25CB50A0A3F3EA Accuracy: -m0 Conclusion: CDDA 100% Signature: ABE436856E4F534DBC51A765F4D6E06D014D18E5FILE: 01. Attack (The Heart).flac Size: 26656929 Hash: 111ACBFA1A2B427545270A0341B175FF Accuracy: -m0 Conclusion: CDDA 100% Signature: AA93E9D87D0C3AF8204C154BD3A0C99063629BA1

Лог DRM

foobar2000 1.3.9 / Dynamic Range Meter 1.1.1log date: 2018-10-13 20:28:29
--------------------------------------------------------------------------------Analyzed: Jhimm / ADSR1--------------------------------------------------------------------------------
DR Peak RMS Duration Track--------------------------------------------------------------------------------DR7 -1.02 dB -10.98 dB 4:00 01-Attack (The Heart)DR7 -1.08 dB -11.13 dB 4:48 02-Decay (The Mind)DR10 -3.06 dB -14.77 dB 2:08 03-Sustain (The Body)DR8 -0.61 dB -10.91 dB 4:01 04-Release (The Soul)--------------------------------------------------------------------------------
Number of tracks: 4Official DR value: DR8
Samplerate: 44100 HzChannels: 2Bits per sample: 16Bitrate: 847 kbpsCodec: FLAC================================================================================
-Раздача обновлена 13.10.2018 г.
Добавлено 2 релиза:
- 2017 - The Golden Age of Nothing (Side 1 EP);
- 2018 - ADSR1 (EP).
-Релиз от группы:
Вы не можете начинать темы
Вы не можете отвечать на сообщения
Вы не можете редактировать свои сообщения
Вы не можете удалять свои сообщения
Вы не можете голосовать в опросах
Вы не можете прикреплять файлы к сообщениям
Вы можете скачивать файлы
!ВНИМАНИЕ!

Сайт не предоставляет электронные версии произведений, а занимается лишь коллекционированием и каталогизацией ссылок, присылаемых и публикуемых на форуме нашими читателями. Если вы являетесь правообладателем какого-либо представленного материала и не желаете, чтобы ссылка на него находилась в нашем каталоге, свяжитесь с нами, и мы незамедлительно удалим ее. Файлы для обмена на трекере предоставлены пользователями сайта, и администрация не несет ответственности за их содержание. Просьба не заливать файлы, защищенные авторскими правами, а также файлы нелегального содержания!

Искали программы, игры, дополнения, музыка mp3, аниме, аудио книги, журналы? Добро пожаловать на свободный торрент трекер Torrents, у нас можно скачать бесплатно, без смс и регистрации и прочих ограничений лучшие, отборные сборки программ, игр. Скачать торрентом не составит труда даже не опытному пользователю. Раздачи ежедневно обновляются, только лучшие и качественные раздачи, подробные описания и скриншоты. Огромная коллекция программ для работы со звуком, графикой, дизайном, а так же множество плагинов и инструментов к ним с подробной инструкцией и рекомендациями. Прошивки для навигаторов, карты. Разнообразные игры, для Windows, Linux. В коллекцие есть и старые игры любых жанров, Rpg, Action, Shooter, strategy Множество дополнений, модификаций, сценариев для популярных игр в жанре экш, рпг, гонки, стратегии, логические игры. Множество аддонов и сценариев для Microsoft Flight Simulator Большая коллекция книг, учебников. Если нет возможности купить печатное издание - смело скачивайте цифровую версию книги или, быть может, журнала. Не любите читать - можно загрузить бесплатно аудикнигу. Для веб дизайнеров и программистов так же найдется множество специализированного софта, таких как: редакторы с подсветкой, среды программирования, компоненты, системы управления базами данных, разнообразные скрипты и шаблоны. Не так давно у нас появился материал для автолюбителей и владельцев мото - оригинальные и неоригинальные каталоги запчастей, книги и журналы по ремонту и обслуживанию, видеоуроки, статьи по чип тюнингу, прошивкам. Процедура получения контента элементарная, достаточно просто скачать торрент файл и добавить его в загрузку в вашем торрент клиенте. Если у вас нет специального торрент клиента, вы можете его скачать у нас.