(Crossover Prog) [CD] Saga - So Far So Good - Live At Rock Of Ages - 2018, FLAC (tracks+.cue), lossless 

Цитировать
Saga
So Far So Good - Live At Rock Of Ages


Жанр: Crossover Prog
Носитель: CD
Страна-производитель диска (релиза): Germany
Год издания: 2018
Издатель (лейбл): EAR Music
Номер по каталогу: 0213500EMU
Страна исполнителя (группы): Canada
Аудиокодек: FLAC (*.flac)
Тип рипа: tracks+.cue
Битрейт аудио: lossless
Продолжительность: 01:32:00
Источник (релизер): Релизер пожелал остаться не известным
Наличие сканов в содержимом раздачи: да

CD1 (46:34)

01. Take A Chance
02. On The Loose
03. Help Me Out
04. Keep It Reel
05. Time’s Up
06. Will It Be You? (Chapter Four)
07. Careful Where You Step
08. Frog Bite (Drum Solo)
09. What's It Gonna Be?

Лог создания рипа

Exact Audio Copy V1.3 from 2. September 2016
EAC extraction logfile from 16. October 2018, 22:33
Saga / So Good So Far - Live At Rock Of Ages (CD1)
Used drive : PLEXTOR DVDR PX-L890SA Adapter: 1 ID: 0
Read mode : SecureUtilize accurate stream : YesDefeat audio cache : YesMake use of C2 pointers : No
Read offset correction : 6Overread into Lead-In and Lead-Out : NoFill up missing offset samples with silence : YesDelete leading and trailing silent blocks : NoNull samples used in CRC calculations : YesUsed interface : Native Win32 interface for Win NT & 2000Gap handling : Appended to previous track
Used output format : User Defined EncoderSelected bitrate : 128 kBit/sQuality : HighAdd ID3 tag : NoCommand line compressor : C:\Program Files (x86)\Exact Audio Copy\Flac\flac.exeAdditional command line options : -8 -V -T "ARTIST=%artist%" -T "TITLE=%title%" -T "ALBUM=%albumtitle%" -T "DATE=%year%" -T "TRACKNUMBER=%tracknr%" -T "TOTALTRACKS=%numtracks%" -T "GENRE=%genre%" -T "ALBUMARTIST=%albumartist%" -T "ALBUM ARTIST=%albumartist%" -T "COMMENT=EAC Secure Mode, Test & Copy, AccurateRip, FLAC -8" %source%
TOC of the extracted CD
Track | Start | Length | Start sector | End sector --------------------------------------------------------- 1 | 0:00.00 | 5:18.03 | 0 | 23852 2 | 5:18.03 | 4:53.16 | 23853 | 45843 3 | 10:11.19 | 6:25.52 | 45844 | 74770 4 | 16:36.71 | 4:27.00 | 74771 | 94795 5 | 21:03.71 | 5:24.38 | 94796 | 119133 6 | 26:28.34 | 6:48.33 | 119134 | 149766 7 | 33:16.67 | 4:27.55 | 149767 | 169846 8 | 37:44.47 | 3:35.25 | 169847 | 185996 9 | 41:19.72 | 5:13.74 | 185997 | 209545
Track 1
Filename E:\Music\Saga - So Far So Good-Live At Rock Of Ages [FLAC]\Disc 1 of 2\01 - Take A Chance.wav
Pre-gap length 0:00:02.00
Peak level 99.4 % Extraction speed 3.0 X Track quality 99.9 % Test CRC C698C5C7 Copy CRC C698C5C7 Track not present in AccurateRip database Copy OK
Track 2
Filename E:\Music\Saga - So Far So Good-Live At Rock Of Ages [FLAC]\Disc 1 of 2\02 - On The Loose.wav
Peak level 99.3 % Extraction speed 3.9 X Track quality 100.0 % Test CRC C0D18DD9 Copy CRC C0D18DD9 Track not present in AccurateRip database Copy OK
Track 3
Filename E:\Music\Saga - So Far So Good-Live At Rock Of Ages [FLAC]\Disc 1 of 2\03 - Help Me Out.wav
Peak level 99.2 % Extraction speed 4.5 X Track quality 100.0 % Test CRC 0D7334DC Copy CRC 0D7334DC Track not present in AccurateRip database Copy OK
Track 4
Filename E:\Music\Saga - So Far So Good-Live At Rock Of Ages [FLAC]\Disc 1 of 2\04 - Keep It Reel.wav
Peak level 99.1 % Extraction speed 4.7 X Track quality 100.0 % Test CRC F12D035B Copy CRC F12D035B Track not present in AccurateRip database Copy OK
Track 5
Filename E:\Music\Saga - So Far So Good-Live At Rock Of Ages [FLAC]\Disc 1 of 2\05 - Time's Up.wav
Peak level 98.9 % Extraction speed 5.1 X Track quality 100.0 % Test CRC FF10FF40 Copy CRC FF10FF40 Track not present in AccurateRip database Copy OK
Track 6
Filename E:\Music\Saga - So Far So Good-Live At Rock Of Ages [FLAC]\Disc 1 of 2\06 - Will It Be You (Chapter Four).wav
Peak level 99.5 % Extraction speed 5.6 X Track quality 100.0 % Test CRC 171C5836 Copy CRC 171C5836 Track not present in AccurateRip database Copy OK
Track 7
Filename E:\Music\Saga - So Far So Good-Live At Rock Of Ages [FLAC]\Disc 1 of 2\07 - Careful Where You Step.wav
Peak level 100.0 % Extraction speed 5.6 X Track quality 100.0 % Test CRC 12D02C68 Copy CRC 12D02C68 Track not present in AccurateRip database Copy OK
Track 8
Filename E:\Music\Saga - So Far So Good-Live At Rock Of Ages [FLAC]\Disc 1 of 2\08 - Frog Bite (Drum Solo).wav
Peak level 99.2 % Extraction speed 5.7 X Track quality 100.0 % Test CRC 0719D6C0 Copy CRC 0719D6C0 Track not present in AccurateRip database Copy OK
Track 9
Filename E:\Music\Saga - So Far So Good-Live At Rock Of Ages [FLAC]\Disc 1 of 2\09 - What's It Gonna Be.wav
Peak level 99.1 % Extraction speed 6.2 X Track quality 100.0 % Test CRC AF3BDBB1 Copy CRC AF3BDBB1 Track not present in AccurateRip database Copy OK
None of the tracks are present in the AccurateRip database
No errors occurred
End of status report
---- CUETools DB Plugin V2.1.6
[CTDB TOCID: QRbyLNq4vCfl7apVDKqZPwKB2Y0-] foundSubmit result: QRbyLNq4vCfl7apVDKqZPwKB2Y0- has been confirmedTrack | CTDB Status 1 | (12/12) Accurately ripped 2 | (12/12) Accurately ripped 3 | (12/12) Accurately ripped 4 | (12/12) Accurately ripped 5 | (12/12) Accurately ripped 6 | (12/12) Accurately ripped 7 | (12/12) Accurately ripped 8 | (12/12) Accurately ripped 9 | (12/12) Accurately ripped
==== Log checksum 79F46A043C3EC16C753F4565EF7021B0ED0D71DBD7B48FE1C02FC37C11A2A2F2 ====

Содержание индексной карты (.CUE)

REM GENRE "Progressive Rock"REM DATE 2018REM DISCID 820AE909REM COMMENT "ExactAudioCopy v1.3"PERFORMER "Saga"TITLE "So Good So Far - Live At Rock Of Ages (CD1)"REM COMPOSER ""FILE "01 - Take A Chance.wav" WAVE  TRACK 01 AUDIO    TITLE "Take A Chance"    PERFORMER "Saga"    REM COMPOSER ""    INDEX 01 00:00:00FILE "02 - On The Loose.wav" WAVE  TRACK 02 AUDIO    TITLE "On The Loose"    PERFORMER "Saga"    REM COMPOSER ""    INDEX 01 00:00:00FILE "03 - Help Me Out.wav" WAVE  TRACK 03 AUDIO    TITLE "Help Me Out"    PERFORMER "Saga"    REM COMPOSER ""    INDEX 01 00:00:00FILE "04 - Keep It Reel.wav" WAVE  TRACK 04 AUDIO    TITLE "Keep It Reel"    PERFORMER "Saga"    REM COMPOSER ""    INDEX 01 00:00:00FILE "05 - Time's Up.wav" WAVE  TRACK 05 AUDIO    TITLE "Time's Up"    PERFORMER "Saga"    REM COMPOSER ""    INDEX 01 00:00:00FILE "06 - Will It Be You (Chapter Four).wav" WAVE  TRACK 06 AUDIO    TITLE "Will It Be You? (Chapter Four)"    PERFORMER "Saga"    REM COMPOSER ""    INDEX 01 00:00:00FILE "07 - Careful Where You Step.wav" WAVE  TRACK 07 AUDIO    TITLE "Careful Where You Step"    PERFORMER "Saga"    REM COMPOSER ""    INDEX 01 00:00:00FILE "08 - Frog Bite (Drum Solo).wav" WAVE  TRACK 08 AUDIO    TITLE "Frog Bite (Drum Solo)"    PERFORMER "Saga"    REM COMPOSER ""    INDEX 01 00:00:00FILE "09 - What's It Gonna Be.wav" WAVE  TRACK 09 AUDIO    TITLE "What's It Gonna Be"    PERFORMER "Saga"    REM COMPOSER ""    INDEX 01 00:00:00

CD2 (45:26)

01. Someone Should
02. Humble Stance
03. Scratching The Surface
04. You’re Not Alone
05. Don't Be Late
06. The Flyer
07. Wind Him Up

Лог создания рипа

Exact Audio Copy V1.3 from 2. September 2016
EAC extraction logfile from 16. October 2018, 22:54
Saga / So Good So Far - Live At Rock Of Ages (CD2)
Used drive : PLEXTOR DVDR PX-L890SA Adapter: 1 ID: 0
Read mode : SecureUtilize accurate stream : YesDefeat audio cache : YesMake use of C2 pointers : No
Read offset correction : 6Overread into Lead-In and Lead-Out : NoFill up missing offset samples with silence : YesDelete leading and trailing silent blocks : NoNull samples used in CRC calculations : YesUsed interface : Native Win32 interface for Win NT & 2000Gap handling : Appended to previous track
Used output format : User Defined EncoderSelected bitrate : 128 kBit/sQuality : HighAdd ID3 tag : NoCommand line compressor : C:\Program Files (x86)\Exact Audio Copy\Flac\flac.exeAdditional command line options : -8 -V -T "ARTIST=%artist%" -T "TITLE=%title%" -T "ALBUM=%albumtitle%" -T "DATE=%year%" -T "TRACKNUMBER=%tracknr%" -T "TOTALTRACKS=%numtracks%" -T "GENRE=%genre%" -T "ALBUMARTIST=%albumartist%" -T "ALBUM ARTIST=%albumartist%" -T "COMMENT=EAC Secure Mode, Test & Copy, AccurateRip, FLAC -8" %source%
TOC of the extracted CD
Track | Start | Length | Start sector | End sector --------------------------------------------------------- 1 | 0:00.00 | 4:48.21 | 0 | 21620 2 | 4:48.21 | 6:31.52 | 21621 | 50997 3 | 11:19.73 | 7:09.26 | 50998 | 83198 4 | 18:29.24 | 6:06.66 | 83199 | 110714 5 | 24:36.15 | 8:47.47 | 110715 | 150286 6 | 33:23.62 | 5:52.03 | 150287 | 176689 7 | 39:15.65 | 6:09.71 | 176690 | 204435
Track 1
Filename E:\Music\Saga - So Far So Good-Live At Rock Of Ages [FLAC]\Disc 2 of 2\01 - Someone Should.wav
Pre-gap length 0:00:02.00
Peak level 99.1 % Extraction speed 3.4 X Track quality 100.0 % Test CRC 617C8EB2 Copy CRC 617C8EB2 Track not present in AccurateRip database Copy OK
Track 2
Filename E:\Music\Saga - So Far So Good-Live At Rock Of Ages [FLAC]\Disc 2 of 2\02 - Humble Stance.wav
Peak level 98.9 % Extraction speed 4.1 X Track quality 100.0 % Test CRC 51D32C45 Copy CRC 51D32C45 Track not present in AccurateRip database Copy OK
Track 3
Filename E:\Music\Saga - So Far So Good-Live At Rock Of Ages [FLAC]\Disc 2 of 2\03 - Scratching The Surface (Chapter Four).wav
Peak level 99.6 % Extraction speed 4.7 X Track quality 100.0 % Test CRC DFEBC77A Copy CRC DFEBC77A Track not present in AccurateRip database Copy OK
Track 4
Filename E:\Music\Saga - So Far So Good-Live At Rock Of Ages [FLAC]\Disc 2 of 2\04 - You're Not Alone.wav
Peak level 99.5 % Extraction speed 5.0 X Track quality 100.0 % Test CRC 0649D453 Copy CRC 0649D453 Track not present in AccurateRip database Copy OK
Track 5
Filename E:\Music\Saga - So Far So Good-Live At Rock Of Ages [FLAC]\Disc 2 of 2\05 - Don't Be Late.wav
Peak level 99.1 % Extraction speed 5.6 X Track quality 100.0 % Test CRC 2FEC8A1B Copy CRC 2FEC8A1B Track not present in AccurateRip database Copy OK
Track 6
Filename E:\Music\Saga - So Far So Good-Live At Rock Of Ages [FLAC]\Disc 2 of 2\06 - The Flyer.wav
Peak level 99.2 % Extraction speed 5.7 X Track quality 100.0 % Test CRC 1B9B6780 Copy CRC 1B9B6780 Track not present in AccurateRip database Copy OK
Track 7
Filename E:\Music\Saga - So Far So Good-Live At Rock Of Ages [FLAC]\Disc 2 of 2\07 - Wind Him Up.wav
Peak level 99.0 % Extraction speed 6.2 X Track quality 100.0 % Test CRC 9A13EE68 Copy CRC 9A13EE68 Track not present in AccurateRip database Copy OK
None of the tracks are present in the AccurateRip database
No errors occurred
End of status report
---- CUETools DB Plugin V2.1.6
[CTDB TOCID: sBjEFRyYMcrrQVmzPwsB2k2Bx4Q-] foundSubmit result: sBjEFRyYMcrrQVmzPwsB2k2Bx4Q- has been confirmedTrack | CTDB Status 1 | (12/12) Accurately ripped 2 | (12/12) Accurately ripped 3 | (12/12) Accurately ripped 4 | (12/12) Accurately ripped 5 | (12/12) Accurately ripped 6 | (12/12) Accurately ripped 7 | (12/12) Accurately ripped
==== Log checksum 47E222F90A9FE6051961EA21868AEF1ECDAAB7AF88DFA1BF93706B9C8B675AED ====

Содержание индексной карты (.CUE)

REM GENRE "Progressive Rock"REM DATE 2018REM DISCID 4C0AA507REM COMMENT "ExactAudioCopy v1.3"PERFORMER "Saga"TITLE "So Good So Far - Live At Rock Of Ages (CD2)"REM COMPOSER ""FILE "01 - Someone Should.wav" WAVE  TRACK 01 AUDIO    TITLE "Someone Should"    PERFORMER "Saga"    REM COMPOSER ""    INDEX 01 00:00:00FILE "02 - Humble Stance.wav" WAVE  TRACK 02 AUDIO    TITLE "Humble Stance"    PERFORMER "Saga"    REM COMPOSER ""    INDEX 01 00:00:00FILE "03 - Scratching The Surface (Chapter Four).wav" WAVE  TRACK 03 AUDIO    TITLE "Scratching The Surface (Chapter Four)"    PERFORMER "Saga"    REM COMPOSER ""    INDEX 01 00:00:00FILE "04 - You're Not Alone.wav" WAVE  TRACK 04 AUDIO    TITLE "You're Not Alone"    PERFORMER "Saga"    REM COMPOSER ""    INDEX 01 00:00:00FILE "05 - Don't Be Late.wav" WAVE  TRACK 05 AUDIO    TITLE "Don't Be Late"    PERFORMER "Saga"    REM COMPOSER ""    INDEX 01 00:00:00FILE "06 - The Flyer.wav" WAVE  TRACK 06 AUDIO    TITLE "The Flyer"    PERFORMER "Saga"    REM COMPOSER ""    INDEX 01 00:00:00FILE "07 - Wind Him Up.wav" WAVE  TRACK 07 AUDIO    TITLE "Wind Him Up"    PERFORMER "Saga"    REM COMPOSER ""    INDEX 01 00:00:00

Состав

Michael Sadler - Vocals, keyboards, bassguitar
Jim Gilmour - Vocals, keyboards
Jim Crichton - Bassguitar, keyboards
Ian Crichton - Guitars
Mike Thorne - Drums
Вы не можете начинать темы
Вы не можете отвечать на сообщения
Вы не можете редактировать свои сообщения
Вы не можете удалять свои сообщения
Вы не можете голосовать в опросах
Вы не можете прикреплять файлы к сообщениям
Вы можете скачивать файлы
!ВНИМАНИЕ!

Сайт не предоставляет электронные версии произведений, а занимается лишь коллекционированием и каталогизацией ссылок, присылаемых и публикуемых на форуме нашими читателями. Если вы являетесь правообладателем какого-либо представленного материала и не желаете, чтобы ссылка на него находилась в нашем каталоге, свяжитесь с нами, и мы незамедлительно удалим ее. Файлы для обмена на трекере предоставлены пользователями сайта, и администрация не несет ответственности за их содержание. Просьба не заливать файлы, защищенные авторскими правами, а также файлы нелегального содержания!

Искали программы, игры, дополнения, музыка mp3, аниме, аудио книги, журналы? Добро пожаловать на свободный торрент трекер Torrents, у нас можно скачать бесплатно, без смс и регистрации и прочих ограничений лучшие, отборные сборки программ, игр. Скачать торрентом не составит труда даже не опытному пользователю. Раздачи ежедневно обновляются, только лучшие и качественные раздачи, подробные описания и скриншоты. Огромная коллекция программ для работы со звуком, графикой, дизайном, а так же множество плагинов и инструментов к ним с подробной инструкцией и рекомендациями. Прошивки для навигаторов, карты. Разнообразные игры, для Windows, Linux. В коллекцие есть и старые игры любых жанров, Rpg, Action, Shooter, strategy Множество дополнений, модификаций, сценариев для популярных игр в жанре экш, рпг, гонки, стратегии, логические игры. Множество аддонов и сценариев для Microsoft Flight Simulator Большая коллекция книг, учебников. Если нет возможности купить печатное издание - смело скачивайте цифровую версию книги или, быть может, журнала. Не любите читать - можно загрузить бесплатно аудикнигу. Для веб дизайнеров и программистов так же найдется множество специализированного софта, таких как: редакторы с подсветкой, среды программирования, компоненты, системы управления базами данных, разнообразные скрипты и шаблоны. Не так давно у нас появился материал для автолюбителей и владельцев мото - оригинальные и неоригинальные каталоги запчастей, книги и журналы по ремонту и обслуживанию, видеоуроки, статьи по чип тюнингу, прошивкам. Процедура получения контента элементарная, достаточно просто скачать торрент файл и добавить его в загрузку в вашем торрент клиенте. Если у вас нет специального торрент клиента, вы можете его скачать у нас.