(Progressive Rock/ Space Rock) [WEB] Astral Son - Wonderful Beyond - 2018, FLAC (tracks), lossless 

Цитировать
Astral Son - Wonderful Beyond- Жанр: Progressive Rock/ Space Rock
Носитель: WEB
Год издания: 2018
Издатель-лейбл: iM L. A. Wijma
Страна исполнителя: Netherlands
Аудиокодек: FLAC (*.flac)
Тип рипа: tracks
Битрейт аудио: lossless
Продолжительность: 00:45:38
Источник: Сеть -> BC
Наличие сканов: нет

Треклист:
01. She (4:39)
02. Matrix of Creation (3:43)
03. Time and Space (4:10)
04. Your Mind (3:30)
05. Moving Slowly (3:01)
06. The Universe (3:02)
07. Cheap Magic Spells (6:55)
08. Nothing New (3:35)
09. The Well (4:14)
10. Journey (5:52)
11. Morning Dew (2:58)

auCDtect

PERFORMER: auCDtect Task Manager, ver. 1.6.0 RC1 build 1.6.0.1Copyright (c) 2008-2010 y-soft. All rights reservedhttp://y-soft.org
ANALYZER: auCDtect: CD records authenticity detector, version 0.8.2Copyright (c) 2004 Oleg Berngardt. All rights reserved.Copyright (c) 2004 Alexander Djourik. All rights reserved.
FILE: 11 Morning Dew.flac Size: 17217050 Hash: A15E4825D48B24085B1CB060503FF564 Accuracy: -m0 Conclusion: CDDA 100% Signature: 69F912513B470E7CD2D8C18913B4CBE6959516DEFILE: 10 Journey.flac Size: 33606655 Hash: DBFB13C37EB81AD8D2FDD43BA71F365C Accuracy: -m0 Conclusion: CDDA 100% Signature: 7A0507CB396BF6067AF43BA4F1C24CF1B80499ACFILE: 09 The Well.flac Size: 28225497 Hash: A80DFAAAC431B6C0DC42DD26CB5FC4E3 Accuracy: -m0 Conclusion: CDDA 99% Signature: 29D4173B51936E3D55FB50D92500B4C2744D491FFILE: 08 Nothing New.flac Size: 21670587 Hash: 4680A60EFE485D8C972C5C666FACC7AC Accuracy: -m0 Conclusion: CDDA 100% Signature: 3444D4D0C5A1D6EB2FA28505B61CE6C17C77F362FILE: 07 Cheap Magic Spells.flac Size: 45315075 Hash: 4D46E14FACDAB5CCF1414F8A4C2B2E5D Accuracy: -m0 Conclusion: CDDA 100% Signature: 8C045F581E5D686A5E6F9459ECFDD1A79A50B691FILE: 06 The Universe.flac Size: 15261292 Hash: 36E3282CE95E27CD68DEDF929C46CDDC Accuracy: -m0 Conclusion: CDDA 100% Signature: 5FF7F9AD5AD29BCF2D1FCA2E7A370CDD28A15257FILE: 05 Moving Slowly.flac Size: 16252048 Hash: CBCC5A66404F7E2F9700224DE8992272 Accuracy: -m0 Conclusion: CDDA 94% Signature: 984C003D327F9C03AC3B88A17CB1E6FE6C81A479FILE: 04 Your Mind.flac Size: 24285502 Hash: 49EDB30A5B3641799A3B126435ECCBE6 Accuracy: -m0 Conclusion: CDDA 100% Signature: 7AC92CCFA13290AC268572119636DB701F7A2D55FILE: 03 Time and Space.flac Size: 20376161 Hash: 0F5C1E55D07A3EE6C6673E0533251625 Accuracy: -m0 Conclusion: CDDA 100% Signature: 106640C8BA0B5CB0083BEDFD8BB9E28CEB53B168FILE: 02 Matrix of Creation.flac Size: 24295215 Hash: E3C2BF2CE4C24B937949ECA0361A8B95 Accuracy: -m0 Conclusion: CDDA 100% Signature: 1C8A89306746DDDB6F7AFCF47DFBCE83FA3F9E37FILE: 01 She.flac Size: 29605934 Hash: 06404EC2F0B73B77A037A3F7B208AB1F Accuracy: -m0 Conclusion: CDDA 100% Signature: 4060492797F2D53D2DD431D2F514FA0520A97C92

DR

foobar2000 1.4 / Замер динамического диапазона (DR) 1.1.1Дата отчёта:  2018-10-18 00:25:20
--------------------------------------------------------------------------------Анализ: Astral Son / Wonderful Beyond--------------------------------------------------------------------------------
DR Пики RMS Продолжительность трека--------------------------------------------------------------------------------DR10 -1.72 дБ -13.23 дБ 4:39 01-SheDR9 -1.61 дБ -13.41 дБ 3:43 02-Matrix of CreationDR11 -7.29 дБ -20.82 дБ 4:10 03-Time and SpaceDR11 -0.78 дБ -13.71 дБ 3:30 04-Your MindDR11 -3.42 дБ -17.29 дБ 3:01 05-Moving SlowlyDR11 -0.81 дБ -14.82 дБ 3:02 06-The UniverseDR10 -1.31 дБ -13.60 дБ 6:55 07-Cheap Magic SpellsDR10 -0.72 дБ -13.08 дБ 3:35 08-Nothing NewDR10 -2.09 дБ -13.36 дБ 4:14 09-The WellDR10 -2.34 дБ -13.80 дБ 5:52 10-JourneyDR11 -0.33 дБ -15.32 дБ 2:58 11-Morning Dew--------------------------------------------------------------------------------
Количество треков: 11Реальные значения DR: DR10
Частота: 44100 ГцКаналов: 2Разрядность: 16Битрейт: 732 кбит/сКодек: FLAC================================================================================
Вы не можете начинать темы
Вы не можете отвечать на сообщения
Вы не можете редактировать свои сообщения
Вы не можете удалять свои сообщения
Вы не можете голосовать в опросах
Вы не можете прикреплять файлы к сообщениям
Вы можете скачивать файлы
!ВНИМАНИЕ!

Сайт не предоставляет электронные версии произведений, а занимается лишь коллекционированием и каталогизацией ссылок, присылаемых и публикуемых на форуме нашими читателями. Если вы являетесь правообладателем какого-либо представленного материала и не желаете, чтобы ссылка на него находилась в нашем каталоге, свяжитесь с нами, и мы незамедлительно удалим ее. Файлы для обмена на трекере предоставлены пользователями сайта, и администрация не несет ответственности за их содержание. Просьба не заливать файлы, защищенные авторскими правами, а также файлы нелегального содержания!

Искали программы, игры, дополнения, музыка mp3, аниме, аудио книги, журналы? Добро пожаловать на свободный торрент трекер Torrents, у нас можно скачать бесплатно, без смс и регистрации и прочих ограничений лучшие, отборные сборки программ, игр. Скачать торрентом не составит труда даже не опытному пользователю. Раздачи ежедневно обновляются, только лучшие и качественные раздачи, подробные описания и скриншоты. Огромная коллекция программ для работы со звуком, графикой, дизайном, а так же множество плагинов и инструментов к ним с подробной инструкцией и рекомендациями. Прошивки для навигаторов, карты. Разнообразные игры, для Windows, Linux. В коллекцие есть и старые игры любых жанров, Rpg, Action, Shooter, strategy Множество дополнений, модификаций, сценариев для популярных игр в жанре экш, рпг, гонки, стратегии, логические игры. Множество аддонов и сценариев для Microsoft Flight Simulator Большая коллекция книг, учебников. Если нет возможности купить печатное издание - смело скачивайте цифровую версию книги или, быть может, журнала. Не любите читать - можно загрузить бесплатно аудикнигу. Для веб дизайнеров и программистов так же найдется множество специализированного софта, таких как: редакторы с подсветкой, среды программирования, компоненты, системы управления базами данных, разнообразные скрипты и шаблоны. Не так давно у нас появился материал для автолюбителей и владельцев мото - оригинальные и неоригинальные каталоги запчастей, книги и журналы по ремонту и обслуживанию, видеоуроки, статьи по чип тюнингу, прошивкам. Процедура получения контента элементарная, достаточно просто скачать торрент файл и добавить его в загрузку в вашем торрент клиенте. Если у вас нет специального торрент клиента, вы можете его скачать у нас.