(Crossover Prog) [CD] 3RDegree - Ones & Zeros: Volume 0 - 2018, FLAC (tracks+.cue), lossless 

Цитировать
3RDegree - Ones & Zeros: Volume 0
Жанр: Crossover Prog
Страна-производитель диска: RU (Unofficial Release)
Год издания диска: 2018
Издатель (лейбл): Not On Label (3RDegree)
Номер по каталогу: 3RD006
Страна: USA
Аудиокодек: FLAC (*.flac)
Тип рипа: tracks+.cue
Битрейт аудио: lossless
Продолжительность: 00:57:28
Источник (релизер): Sket4er
Наличие сканов в содержимом раздачи: да
Треклист:
01. Re1nstall_0verture 03:57
02. Connecting 04:53
03. Olympia 05:15
04. The Future Doesn't Need You 05:50
05. Unintended Consequence 03:35
06. Perfect Babies 04:43
07. Logical Conclusion 06:40
08. Click Away! 15:28
I. Positive Feedback Loop (One Click Away)
II. Click Farm
III. Only Listen To This Section If You Truly Want Wealth And Security
09. Ones & Zeros 07:07

Лог создания рипа

Exact Audio Copy V1.3 from 2. September 2016
EAC extraction logfile from 9. October 2018, 20:35
3RDegree / Ones & Zeros: Vol. 0
Used drive : TSSTcorpCDDVDW SH-224DB Adapter: 1 ID: 0
Read mode : SecureUtilize accurate stream : YesDefeat audio cache : YesMake use of C2 pointers : No
Read offset correction : 6Overread into Lead-In and Lead-Out : NoFill up missing offset samples with silence : YesDelete leading and trailing silent blocks : NoNull samples used in CRC calculations : YesUsed interface : Native Win32 interface for Win NT & 2000Gap handling : Appended to previous track
Used output format : User Defined EncoderSelected bitrate : 1024 kBit/sQuality : HighAdd ID3 tag : NoCommand line compressor : C:\Program Files (x86)\Exact Audio Copy\win64\flac.exeAdditional command line options : -8 -V -T "ARTIST=%artist%" -T "TITLE=%title%" -T "ALBUM=%albumtitle%" -T "DATE=%year%" -T "TRACKNUMBER=%tracknr%" -T "GENRE=%genre%" -T "COMMENT=%comment%" %source% -o %dest%
TOC of the extracted CD
Track | Start | Length | Start sector | End sector --------------------------------------------------------- 1 | 0:00.00 | 3:56.70 | 0 | 17769 2 | 3:56.70 | 4:53.08 | 17770 | 39752 3 | 8:50.03 | 5:15.34 | 39753 | 63411 4 | 14:05.37 | 5:49.66 | 63412 | 89652 5 | 19:55.28 | 3:34.74 | 89653 | 105776 6 | 23:30.27 | 4:42.56 | 105777 | 126982 7 | 28:13.08 | 6:40.00 | 126983 | 156982 8 | 34:53.08 | 15:27.39 | 156983 | 226546 9 | 50:20.47 | 7:07.31 | 226547 | 258602
Track 1
Filename F:\Sket4er\3RDegree – Ones & Zeros Vol. 0 2018\01 Ee1ntall_Overture.wav
Pre-gap length 0:00:02.00
Peak level 94.4 % Extraction speed 1.5 X Track quality 99.9 % Test CRC DAD53AB7 Copy CRC 7045E1EE Cannot be verified as accurate (confidence 1) [060A5BDA], AccurateRip returned [7E47479D] (AR v2) Copy OK
Track 2
Filename F:\Sket4er\3RDegree – Ones & Zeros Vol. 0 2018\02 Connecting.wav
Peak level 89.1 % Extraction speed 1.9 X Track quality 99.9 % Test CRC 7CE6E489 Copy CRC 7CE6E489 Cannot be verified as accurate (confidence 1) [453D824E], AccurateRip returned [5996AF80] (AR v2) Copy OK
Track 3
Filename F:\Sket4er\3RDegree – Ones & Zeros Vol. 0 2018\03 Olympia.wav
Peak level 94.4 % Extraction speed 2.4 X Track quality 100.0 % Test CRC E157F6DB Copy CRC E157F6DB Cannot be verified as accurate (confidence 1) [FC1165B6], AccurateRip returned [FF98D58E] (AR v2) Copy OK
Track 4
Filename F:\Sket4er\3RDegree – Ones & Zeros Vol. 0 2018\04 The Future Doesn't Need You.wav
Peak level 94.4 % Extraction speed 2.6 X Track quality 100.0 % Test CRC 09FEE9EA Copy CRC 09FEE9EA Cannot be verified as accurate (confidence 1) [4952F9E0], AccurateRip returned [D1A3222B] (AR v2) Copy OK
Track 5
Filename F:\Sket4er\3RDegree – Ones & Zeros Vol. 0 2018\05 Unintended Consequence.wav
Peak level 94.4 % Extraction speed 2.6 X Track quality 100.0 % Test CRC 2082359E Copy CRC 2082359E Cannot be verified as accurate (confidence 1) [E93CB93E], AccurateRip returned [59EA8818] (AR v2) Copy OK
Track 6
Filename F:\Sket4er\3RDegree – Ones & Zeros Vol. 0 2018\06 Perfect Babies.wav
Peak level 94.4 % Extraction speed 2.9 X Track quality 100.0 % Test CRC D1093495 Copy CRC D1093495 Cannot be verified as accurate (confidence 1) [FAB4911D], AccurateRip returned [25EF3B5B] (AR v2) Copy OK
Track 7
Filename F:\Sket4er\3RDegree – Ones & Zeros Vol. 0 2018\07 Logical Conclusion.wav
Peak level 94.4 % Extraction speed 2.8 X Track quality 99.9 % Test CRC B28982F7 Copy CRC B28982F7 Cannot be verified as accurate (confidence 1) [1E6D9972], AccurateRip returned [05D60472] (AR v2) Copy OK
Track 8
Filename F:\Sket4er\3RDegree – Ones & Zeros Vol. 0 2018\08 Click Away!.wav
Peak level 94.4 % Extraction speed 2.8 X Track quality 99.9 % Test CRC 15BE9059 Copy CRC 15BE9059 Cannot be verified as accurate (confidence 1) [560040E9], AccurateRip returned [89D2FF85] (AR v2) Copy OK
Track 9
Filename F:\Sket4er\3RDegree – Ones & Zeros Vol. 0 2018\09 Ones & Zeros.wav
Suspicious position 0:01:03 Suspicious position 0:06:56
Peak level 94.4 % Extraction speed 1.4 X Track quality 99.7 % Test CRC C1A49F3D Copy CRC 04159F61 Cannot be verified as accurate (confidence 1) [22192C78], AccurateRip returned [B2ADBDDF] (AR v2) Copy finished
No tracks could be verified as accurate
There were errors
End of status report
---- CUETools DB Plugin V2.1.6
[CTDB TOCID: 5zM8uIMXVBDN00SqtkpmaFltHmo-] foundSubmit result: insufficient qualityTrack | CTDB Status 1 | (1/1) Differs in 47 samples @00:27:15,01:13:10,01:22:36,03:19:48 2 | (1/1) Accurately ripped 3 | (1/1) Accurately ripped 4 | (1/1) Accurately ripped 5 | (1/1) Differs in 52 samples @03:00:11 6 | (1/1) Accurately ripped 7 | (1/1) Accurately ripped 8 | (1/1) Differs in 91 samples @04:56:56,10:15:35,11:07:42,14:15:66,14:16:67 9 | (1/1) Differs in 323 samples @00:46:29,01:04:00-01:04:01,01:15:20,01:15:58,01:16:60,01:18:64,01:20:09-01:20:10,01:25:18-01:25:19,01:26:40,01:50:68,03:54:32,05:28:02,06:56:39If you are sure that your rip contains errors, you can use CUETools to repair it.
==== Log checksum 580C40F8CF0DDCF1E1E34DFFC78DB20CBE5F4681B846D14A3F47CDEF734484F0 ====

Содержание индексной карты (.CUE)

REM GENRE "Prog Rock"REM DATE 2018REM DISCID 720D7809REM COMMENT "ExactAudioCopy v1.3"PERFORMER "3RDegree"TITLE "Ones & Zeros: Vol. 0 "REM COMPOSER ""FILE "01 Ee1ntall_Overture.wav" WAVE  TRACK 01 AUDIO    TITLE "Ee1ntall_Overture"    PERFORMER "3RDegree"    REM COMPOSER ""    INDEX 01 00:00:00FILE "02 Connecting.wav" WAVE  TRACK 02 AUDIO    TITLE "Connecting"    PERFORMER "3RDegree"    REM COMPOSER ""    INDEX 01 00:00:00FILE "03 Olympia.wav" WAVE  TRACK 03 AUDIO    TITLE "Olympia"    PERFORMER "3RDegree"    REM COMPOSER ""    INDEX 01 00:00:00FILE "04 The Future Doesn't Need You.wav" WAVE  TRACK 04 AUDIO    TITLE "The Future Doesn't Need You"    PERFORMER "3RDegree"    REM COMPOSER ""    INDEX 01 00:00:00FILE "05 Unintended Consequence.wav" WAVE  TRACK 05 AUDIO    TITLE "Unintended Consequence"    PERFORMER "3RDegree"    REM COMPOSER ""    INDEX 01 00:00:00FILE "06 Perfect Babies.wav" WAVE  TRACK 06 AUDIO    TITLE "Perfect Babies"    PERFORMER "3RDegree"    REM COMPOSER ""    INDEX 01 00:00:00FILE "07 Logical Conclusion.wav" WAVE  TRACK 07 AUDIO    TITLE "Logical Conclusion"    PERFORMER "3RDegree"    REM COMPOSER ""    INDEX 01 00:00:00FILE "08 Click Away!.wav" WAVE  TRACK 08 AUDIO    TITLE "Click Away!"    PERFORMER "3RDegree"    REM COMPOSER ""    INDEX 01 00:00:00FILE "09 Ones & Zeros.wav" WAVE  TRACK 09 AUDIO    TITLE "Ones & Zeros"    PERFORMER "3RDegree"    REM COMPOSER ""    INDEX 01 00:00:00

Лог проверки качества

-----------------------
DON'T MODIFY THIS FILE
-----------------------
PERFORMER: auCDtect Task Manager, ver. 1.5.1RC4 build 1.5.1.5Copyright (c) 2008-2010 y-soft. All rights reservedhttp://y-soft.org
ANALYZER: auCDtect: CD records authenticity detector, version 0.8.2Copyright (c) 2004 Oleg Berngardt. All rights reserved.Copyright (c) 2004 Alexander Djourik. All rights reserved.
FILE: 09 Ones & Zeros.flac Size: 43586862 Hash: 11B42A1015F8A88A063BFD8BA6A8DB2E Accuracy: -m0 Conclusion: CDDA 100% Signature: 56F2D1B874946834C2249E0E25B0DF75E2FA580EFILE: 08 Click Away!.flac Size: 102278196 Hash: 41DA9B472997512ADE5AE4923BBB2E18 Accuracy: -m0 Conclusion: CDDA 100% Signature: 9A6749063600753A726FB939695786E1EA8D55D1FILE: 07 Logical Conclusion.flac Size: 43987016 Hash: 569C6708D62068C59CB504AD97E4A859 Accuracy: -m0 Conclusion: CDDA 100% Signature: 04EFE3B7230D65FCD945D95C8FD7F6E33733EA7DFILE: 06 Perfect Babies.flac Size: 33520326 Hash: D0B9FA0420304E67AE9B7231C9A5523B Accuracy: -m0 Conclusion: CDDA 100% Signature: B24955E2B67AE1E9DA448C959762EE44C84446B4FILE: 05 Unintended Consequence.flac Size: 23969502 Hash: DC18FACF122C992EDF8B423772CAD8AD Accuracy: -m0 Conclusion: CDDA 100% Signature: D44F499D90CCB3D2E6F7CA91A5051AC32DD39EF2FILE: 04 The Future Doesn't Need You.flac Size: 36929600 Hash: 157C1B46C869C96CD58403B2E7B95A45 Accuracy: -m0 Conclusion: CDDA 99% Signature: 939603E85844AF83FB71AC61CA57BE1A3D4BB279FILE: 03 Olympia.flac Size: 34855993 Hash: E425BF23053EEEF1DFF96FF3B929ECD4 Accuracy: -m0 Conclusion: CDDA 100% Signature: 9AE8CAE797524EA6C35865F85CD9CDC9F8BCADEEFILE: 02 Connecting.flac Size: 33779973 Hash: 04FA91C2433456E291ED5C94B760ACF3 Accuracy: -m0 Conclusion: CDDA 100% Signature: 717A714AC515791337414337DB568E31EF236085FILE: 01 Ee1ntall_Overture.flac Size: 27242767 Hash: 5654D1F81C3613402F1442043EEC7AF5 Accuracy: -m0 Conclusion: CDDA 100% Signature: EAB419CFF449A5B159E75B5A0217D09D3F49B339

DR log

foobar2000 1.3.9 / Замер динамического диапазона (DR) 1.1.1Дата отчёта:  2018-10-10 16:10:24
--------------------------------------------------------------------------------Анализ: 3RDegree / Ones & Zeros: Vol. 0--------------------------------------------------------------------------------
DR Пики RMS Продолжительность трека--------------------------------------------------------------------------------DR9 -0.50 дБ -10.73 дБ 3:57 01-Ee1ntall_OvertureDR10 -1.00 дБ -13.40 дБ 4:53 02-ConnectingDR10 -0.50 дБ -12.61 дБ 5:15 03-OlympiaDR10 -0.50 дБ -13.99 дБ 5:50 04-The Future Doesn't Need YouDR9 -0.50 дБ -12.38 дБ 3:35 05-Unintended ConsequenceDR12 -0.50 дБ -14.43 дБ 4:43 06-Perfect BabiesDR12 -0.50 дБ -14.10 дБ 6:40 07-Logical ConclusionDR10 -0.50 дБ -13.19 дБ 15:28 08-Click Away!DR11 -0.50 дБ -14.11 дБ 7:07 09-Ones & Zeros--------------------------------------------------------------------------------
Количество треков: 9Реальные значения DR: DR10
Частота: 44100 ГцКаналов: 2Разрядность: 16Битрейт: 814 кбит/сКодек: FLAC================================================================================
Доп. информация

Состав

George Dobbs – Lead & Backing Vocals, Keyboards, Percussion, Violin
Robert James Pashman – Bass Guitar, Keyboards, Backing Vocals
Patrick Kliesch – Acoustic & Electric Guitars, Keyboards, Backing Vocals
Robert Durham – Drums & Percussion
Eric Pseja – Electric Guitar, Backing Vocals
Bryan Zeigler – Electric Guitar & Backing Vocals
Aaron Nobel – Drums & Percussion (track 7)
Sheuh-Li Ong – Theremin (track 3)
Moorea Dickason – Lead Vocal (track 5)
Jay Friedman – Additional Violin (track 8)
Ava Penelope Pashman – Spoken Voice (track 6)
Вы не можете начинать темы
Вы не можете отвечать на сообщения
Вы не можете редактировать свои сообщения
Вы не можете удалять свои сообщения
Вы не можете голосовать в опросах
Вы не можете прикреплять файлы к сообщениям
Вы можете скачивать файлы
!ВНИМАНИЕ!

Сайт не предоставляет электронные версии произведений, а занимается лишь коллекционированием и каталогизацией ссылок, присылаемых и публикуемых на форуме нашими читателями. Если вы являетесь правообладателем какого-либо представленного материала и не желаете, чтобы ссылка на него находилась в нашем каталоге, свяжитесь с нами, и мы незамедлительно удалим ее. Файлы для обмена на трекере предоставлены пользователями сайта, и администрация не несет ответственности за их содержание. Просьба не заливать файлы, защищенные авторскими правами, а также файлы нелегального содержания!

Искали программы, игры, дополнения, музыка mp3, аниме, аудио книги, журналы? Добро пожаловать на свободный торрент трекер Torrents, у нас можно скачать бесплатно, без смс и регистрации и прочих ограничений лучшие, отборные сборки программ, игр. Скачать торрентом не составит труда даже не опытному пользователю. Раздачи ежедневно обновляются, только лучшие и качественные раздачи, подробные описания и скриншоты. Огромная коллекция программ для работы со звуком, графикой, дизайном, а так же множество плагинов и инструментов к ним с подробной инструкцией и рекомендациями. Прошивки для навигаторов, карты. Разнообразные игры, для Windows, Linux. В коллекцие есть и старые игры любых жанров, Rpg, Action, Shooter, strategy Множество дополнений, модификаций, сценариев для популярных игр в жанре экш, рпг, гонки, стратегии, логические игры. Множество аддонов и сценариев для Microsoft Flight Simulator Большая коллекция книг, учебников. Если нет возможности купить печатное издание - смело скачивайте цифровую версию книги или, быть может, журнала. Не любите читать - можно загрузить бесплатно аудикнигу. Для веб дизайнеров и программистов так же найдется множество специализированного софта, таких как: редакторы с подсветкой, среды программирования, компоненты, системы управления базами данных, разнообразные скрипты и шаблоны. Не так давно у нас появился материал для автолюбителей и владельцев мото - оригинальные и неоригинальные каталоги запчастей, книги и журналы по ремонту и обслуживанию, видеоуроки, статьи по чип тюнингу, прошивкам. Процедура получения контента элементарная, достаточно просто скачать торрент файл и добавить его в загрузку в вашем торрент клиенте. Если у вас нет специального торрент клиента, вы можете его скачать у нас.