(Progressive Rock) [WEB] Evan Hause - Plastic Island Pentecost - 2018, FLAC (tracks), lossless 

Цитировать
Evan Hause / Plastic Island Pentecost
Жанр: Progressive Rock
Носитель: WEB
Год издания: 2018
Страна исполнителя (группы): USA
Аудиокодек: FLAC (*.flac)
Тип рипа: tracks
Битрейт аудио: lossless
Продолжительность: 43:38
Источник (релизер): Bandcamp
Наличие сканов в содержимом раздачи: pdf liner notes

01. The Mountain of Signs [00:02:29]
02. Metempsychosis (Palindrome) [00:05:33]
03. Send for the Captain [00:06:31]
04. Bal des Ardents [00:07:34]
05. Temple of the Moon [00:02:41]
06. Aileron [00:04:34]
07. Winter Flower [00:02:16]
08. Running the Land [00:02:45]
09. Hymn to the Lake [00:02:33]
10. Temple of the Sun [00:06:38]
Releases October 21, 2018--

Состав

Evan Hause - Guitars, Basses, Piano, Keyboards, Drums, Percussion, Ocarina, Vocals, Lyrics, Cover Art
Maureen Hurd - Clarinets, Bass Clarinet (2, 8)
Paul Brantley - Cello (1, 7)
David Nadal - Classical Guitar (7, 10)
Holland Jancaitis - Church Organ (2, 10)
John McEntire - Drums (6)
Elena Hause - Vocal (7)
Holly Nadal - Backing Vocals (7)

Лог проверки качества

-----------------------
DON'T MODIFY THIS FILE
-----------------------
PERFORMER: auCDtect Task Manager, ver. 1.6.0 RC1 build 1.6.0.1Copyright (c) 2008-2010 y-soft. All rights reservedhttp://y-soft.org
ANALYZER: auCDtect: CD records authenticity detector, version 0.8.2Copyright (c) 2004 Oleg Berngardt. All rights reserved.Copyright (c) 2004 Alexander Djourik. All rights reserved.
FILE: 10. Temple of the Sun.flac Size: 42599796 Hash: 9B2DA2E2BBB97B3E5E89E5B1305A7DDC Accuracy: -m0 Conclusion: CDDA 99% Signature: 309BC0F2E6A28C105C70EA370286047C9702D4E9FILE: 09. Hymn to the Lake.flac Size: 14962329 Hash: 29F687A1E624B72632785469FBC64530 Accuracy: -m0 Conclusion: CDDA 100% Signature: C2DEBC4AF4C4CE65C98A1185AED5EB2D9F971041FILE: 08. Running the Land.flac Size: 17476983 Hash: 0E831D4A63C713225AD62C7E2A73D9FA Accuracy: -m0 Conclusion: CDDA 100% Signature: 2FC580986C1B32E23FD6468F480752EB2F74C8F0FILE: 07. Winter Flower.flac Size: 13007805 Hash: 4519E46F73A8E9DA87120F205D33438F Accuracy: -m0 Conclusion: CDDA 100% Signature: F96B53AB17E42FF6CB8C0D7F4B3FE45E511576C7FILE: 06. Aileron.flac Size: 27030279 Hash: 27F6F4DE6B2E5C02A9D2921BB58BA984 Accuracy: -m0 Conclusion: CDDA 99% Signature: 60965864DBAFA9BBE12F0C014D254F43BC58D550FILE: 05. Temple of the Moon.flac Size: 14663696 Hash: B93988557396149F8A2BDE7B5E4169C9 Accuracy: -m0 Conclusion: CDDA 100% Signature: 5F10A89D381351439DD5FA133543B9E53CE7CD8BFILE: 04. Bal des Ardents.flac Size: 45067659 Hash: 22F445A0BF218CB3F44A4E2D8F21A099 Accuracy: -m0 Conclusion: CDDA 100% Signature: FB9E57118D68E85A6A0C56C5B496156026756984FILE: 03. Send for the Captain.flac Size: 41817336 Hash: 292CB963A0388857E239462019E11B83 Accuracy: -m0 Conclusion: CDDA 100% Signature: 842C1640808F43CD07158DE9F080DCCB8668092EFILE: 02. Metempsychosis (Palindrome).flac Size: 37378107 Hash: 8F7EAE575C2E88113F2C7E71B1F8C224 Accuracy: -m0 Conclusion: CDDA 100% Signature: D752FBD921A7A6F02095C0AFBDC7A735E13A15C3FILE: 01. The Mountain of Signs.flac Size: 14312677 Hash: B160742F2D449BC10406B4DB8853D14E Accuracy: -m0 Conclusion: CDDA 100% Signature: 4A8BD0A3C8B61A59A28B4CEC8A83FE5FA29A7BD3

DRM log

foobar2000 1.3.12 / Dynamic Range Meter 1.1.1log date: 2018-10-18 08:03:08
--------------------------------------------------------------------------------Analyzed: Evan Hause / Plastic Island Pentecost--------------------------------------------------------------------------------
DR Peak RMS Duration Track--------------------------------------------------------------------------------DR9 -3.63 dB -15.78 dB 2:29 01-The Mountain of SignsDR9 -1.03 dB -12.10 dB 5:33 02-Metempsychosis (Palindrome)DR10 -1.02 dB -13.31 dB 6:31 03-Send for the CaptainDR10 -1.04 dB -14.00 dB 7:34 04-Bal des ArdentsDR11 -3.76 dB -18.23 dB 2:42 05-Temple of the MoonDR9 -1.04 dB -11.92 dB 4:35 06-AileronDR9 -1.06 dB -13.44 dB 2:17 07-Winter FlowerDR9 -1.06 dB -13.38 dB 2:45 08-Running the LandDR9 -1.49 dB -12.57 dB 2:34 09-Hymn to the LakeDR7 -1.01 dB -10.26 dB 6:38 10-Temple of the Sun--------------------------------------------------------------------------------
Number of tracks: 10Official DR value: DR9
Samplerate: 44100 HzChannels: 2Bits per sample: 16Bitrate: 854 kbpsCodec: FLAC================================================================================
--
Вы не можете начинать темы
Вы не можете отвечать на сообщения
Вы не можете редактировать свои сообщения
Вы не можете удалять свои сообщения
Вы не можете голосовать в опросах
Вы не можете прикреплять файлы к сообщениям
Вы можете скачивать файлы
!ВНИМАНИЕ!

Сайт не предоставляет электронные версии произведений, а занимается лишь коллекционированием и каталогизацией ссылок, присылаемых и публикуемых на форуме нашими читателями. Если вы являетесь правообладателем какого-либо представленного материала и не желаете, чтобы ссылка на него находилась в нашем каталоге, свяжитесь с нами, и мы незамедлительно удалим ее. Файлы для обмена на трекере предоставлены пользователями сайта, и администрация не несет ответственности за их содержание. Просьба не заливать файлы, защищенные авторскими правами, а также файлы нелегального содержания!

Искали программы, игры, дополнения, музыка mp3, аниме, аудио книги, журналы? Добро пожаловать на свободный торрент трекер Torrents, у нас можно скачать бесплатно, без смс и регистрации и прочих ограничений лучшие, отборные сборки программ, игр. Скачать торрентом не составит труда даже не опытному пользователю. Раздачи ежедневно обновляются, только лучшие и качественные раздачи, подробные описания и скриншоты. Огромная коллекция программ для работы со звуком, графикой, дизайном, а так же множество плагинов и инструментов к ним с подробной инструкцией и рекомендациями. Прошивки для навигаторов, карты. Разнообразные игры, для Windows, Linux. В коллекцие есть и старые игры любых жанров, Rpg, Action, Shooter, strategy Множество дополнений, модификаций, сценариев для популярных игр в жанре экш, рпг, гонки, стратегии, логические игры. Множество аддонов и сценариев для Microsoft Flight Simulator Большая коллекция книг, учебников. Если нет возможности купить печатное издание - смело скачивайте цифровую версию книги или, быть может, журнала. Не любите читать - можно загрузить бесплатно аудикнигу. Для веб дизайнеров и программистов так же найдется множество специализированного софта, таких как: редакторы с подсветкой, среды программирования, компоненты, системы управления базами данных, разнообразные скрипты и шаблоны. Не так давно у нас появился материал для автолюбителей и владельцев мото - оригинальные и неоригинальные каталоги запчастей, книги и журналы по ремонту и обслуживанию, видеоуроки, статьи по чип тюнингу, прошивкам. Процедура получения контента элементарная, достаточно просто скачать торрент файл и добавить его в загрузку в вашем торрент клиенте. Если у вас нет специального торрент клиента, вы можете его скачать у нас.