(Progressive Rock) [WEB] Texel - Zooming Into Focus - 2018, FLAC (tracks), lossless 

Цитировать
Texel / Zooming Into Focus
Жанр: Progressive Rock
Носитель: WEB
Год издания: 2018
Страна исполнителя (группы): Denmark
Аудиокодек: FLAC (*.flac)
Тип рипа: tracks
Битрейт аудио: lossless
Продолжительность: 43:25
Источник (релизер): Bandcamp
Наличие сканов в содержимом раздачи: нет

01. Medusa [00:05:26]
02. 1975 [00:06:42]
03. Organic [00:05:18]
04. Ambitious [00:08:02]
05. Impressions [00:05:57]
06. Modus Operandi [00:07:45]
07. Kingmakers Parade [00:04:11]
Released October 14, 2018
Доп. информация: This is an anglo-danish collaboration/project featuring Neil Gowland and Steffen Staugaard.
The music is instrumental pieces inspired by the dutch band Focus. It´s an homage to the bands musical style.--

Состав

Steffen Staugaard - Keyboards
Neil Gowland - Guitars
Max Saidi - Drums
Phil Wood - Bass
Thorstein Quebec Hemmet - Flute
Gerard McDonald - Flute on "Impressions"

Лог проверки качества

-----------------------
DON'T MODIFY THIS FILE
-----------------------
PERFORMER: auCDtect Task Manager, ver. 1.6.0 RC1 build 1.6.0.1Copyright (c) 2008-2010 y-soft. All rights reservedhttp://y-soft.org
ANALYZER: auCDtect: CD records authenticity detector, version 0.8.2Copyright (c) 2004 Oleg Berngardt. All rights reserved.Copyright (c) 2004 Alexander Djourik. All rights reserved.
FILE: Texel - Zooming Into Focus - 07 Kingmakers Parade.flac Size: 31166126 Hash: 177DF1FC85E0B7639158B86C713FC8A0 Accuracy: -m0 Conclusion: CDDA 100% Signature: 60F251FFBE25FC5B2EA4D788DB0A523DF34BF242FILE: Texel - Zooming Into Focus - 06 Modus Operandi.flac Size: 50711189 Hash: E176F6754D4044863F2AC7AFA51354D8 Accuracy: -m0 Conclusion: CDDA 99% Signature: 5FEACBA29F95C9899400A43E7903DE63A788CA65FILE: Texel - Zooming Into Focus - 05 Impressions.flac Size: 41452442 Hash: 38263FF1FE7866548D7589EB3F71578A Accuracy: -m0 Conclusion: CDDA 100% Signature: C1B92B4F1AB684D572807010EEE92AA833D28DBAFILE: Texel - Zooming Into Focus - 04 Ambitious.flac Size: 53672592 Hash: 3B9A8611AB023E07FF155BBC0C643BB0 Accuracy: -m0 Conclusion: CDDA 100% Signature: D206D1A64608E154840BDFAC638F3FFCD40F15F4FILE: Texel - Zooming Into Focus - 03 Organic.flac Size: 35585177 Hash: AB1B92D245EED28D79736B4F4AE5A316 Accuracy: -m0 Conclusion: CDDA 94% Signature: 5E12BB231B98DCC3A9F5DFB4025E9015C4072F84FILE: Texel - Zooming Into Focus - 02 1975.flac Size: 46828338 Hash: 7C56384D32211B0ED6D7AA298CB16C4C Accuracy: -m0 Conclusion: CDDA 100% Signature: 396076027FF910D14B83460A24304F89EB4C218AFILE: Texel - Zooming Into Focus - 01 Medusa.flac Size: 39329518 Hash: 867A06DA768CAC164CB4AB4E04B51DF2 Accuracy: -m0 Conclusion: CDDA 99% Signature: 35C11E2E5ADBAFA0B87064E2AFFF8AF51F8876F7

DRM log

foobar2000 1.3.12 / Dynamic Range Meter 1.1.1log date: 2018-10-15 03:51:58
--------------------------------------------------------------------------------Analyzed: Texel / Zooming Into Focus--------------------------------------------------------------------------------
DR Peak RMS Duration Track--------------------------------------------------------------------------------DR6 -0.30 dB -7.57 dB 5:26 01-MedusaDR6 -0.10 dB -7.97 dB 6:42 02-1975DR8 -0.30 dB -9.65 dB 5:19 03-OrganicDR7 -0.30 dB -9.68 dB 8:03 04-AmbitiousDR7 -0.30 dB -9.08 dB 5:58 05-ImpressionsDR6 -0.30 dB -8.37 dB 7:46 06-Modus OperandiDR7 -0.30 dB -8.73 dB 4:12 07-Kingmakers Parade--------------------------------------------------------------------------------
Number of tracks: 7Official DR value: DR7
Samplerate: 44100 HzChannels: 2Bits per sample: 16Bitrate: 986 kbpsCodec: FLAC================================================================================
--
Вы не можете начинать темы
Вы не можете отвечать на сообщения
Вы не можете редактировать свои сообщения
Вы не можете удалять свои сообщения
Вы не можете голосовать в опросах
Вы не можете прикреплять файлы к сообщениям
Вы можете скачивать файлы
!ВНИМАНИЕ!

Сайт не предоставляет электронные версии произведений, а занимается лишь коллекционированием и каталогизацией ссылок, присылаемых и публикуемых на форуме нашими читателями. Если вы являетесь правообладателем какого-либо представленного материала и не желаете, чтобы ссылка на него находилась в нашем каталоге, свяжитесь с нами, и мы незамедлительно удалим ее. Файлы для обмена на трекере предоставлены пользователями сайта, и администрация не несет ответственности за их содержание. Просьба не заливать файлы, защищенные авторскими правами, а также файлы нелегального содержания!

Искали программы, игры, дополнения, музыка mp3, аниме, аудио книги, журналы? Добро пожаловать на свободный торрент трекер Torrents, у нас можно скачать бесплатно, без смс и регистрации и прочих ограничений лучшие, отборные сборки программ, игр. Скачать торрентом не составит труда даже не опытному пользователю. Раздачи ежедневно обновляются, только лучшие и качественные раздачи, подробные описания и скриншоты. Огромная коллекция программ для работы со звуком, графикой, дизайном, а так же множество плагинов и инструментов к ним с подробной инструкцией и рекомендациями. Прошивки для навигаторов, карты. Разнообразные игры, для Windows, Linux. В коллекцие есть и старые игры любых жанров, Rpg, Action, Shooter, strategy Множество дополнений, модификаций, сценариев для популярных игр в жанре экш, рпг, гонки, стратегии, логические игры. Множество аддонов и сценариев для Microsoft Flight Simulator Большая коллекция книг, учебников. Если нет возможности купить печатное издание - смело скачивайте цифровую версию книги или, быть может, журнала. Не любите читать - можно загрузить бесплатно аудикнигу. Для веб дизайнеров и программистов так же найдется множество специализированного софта, таких как: редакторы с подсветкой, среды программирования, компоненты, системы управления базами данных, разнообразные скрипты и шаблоны. Не так давно у нас появился материал для автолюбителей и владельцев мото - оригинальные и неоригинальные каталоги запчастей, книги и журналы по ремонту и обслуживанию, видеоуроки, статьи по чип тюнингу, прошивкам. Процедура получения контента элементарная, достаточно просто скачать торрент файл и добавить его в загрузку в вашем торрент клиенте. Если у вас нет специального торрент клиента, вы можете его скачать у нас.