(Prog Folk) [CD] Gryphon - Reinvention - 2018 (SHM-CD, Japan), FLAC (image+.cue), lossless 

Цитировать
Gryphon - Reinvention
Жанр: Prog Folk
Носитель: CD
Год выпуска диска: 2018
Страна: UK
Производитель диска: BELLE ANTIQUE / BELLE-182991 / SHM-CD
Аудио кодек: FLAC
Тип рипа: image+.cue
Битрейт аудио: lossless
Продолжительность: 70:36
Наличие сканов в содержимом раздачи: back, front
Трэклист:
01. Pipe Up Downsland Derry Dell Danko (4:49)
02. Rhubarb Crumhorn (5:56)
03. A Futuristic Auntyquarian (5:58)
04. Haddocks' Eyes (10:58)
05. Hampton Caught (5:12)
06. Hospitality At A Price... Anyone For? (3:11)
07. Dumbe Dum Chit (3:08)
08. Bathsheba (5:37)
09. Sailor V (8:37)
10. Ashes (3:32)
11. The Euphrates Connection (4:43)
+ + + + + + + + + + + + +
12. New Dances (Japan bonus) (7:54)
Состав:
- Brian "Phoebus" Gulland / Bassoon, Bass Crumhorn, Recorders, Harmonium, Gastaps, Vocals
- Graeme Taylor / Guitars, Vocals
- Dave Oberlé / Drums, Vocals
- Graham Preskett / Violin, Mandolin, Keyboards
- Andy Findon / Flute, Soprano Crumhorn, Soprano Sax, Clarinet
Доп. информация: http://www.progarchives.com/artist.asp?id=135

Отчёт EAC

Exact Audio Copy V1.3 from 2. September 2016
EAC extraction logfile from 10. October 2018, 20:20
Gryphon / ReInvention
Used drive : HL-DT-STDVDRAM GUB0N Adapter: 1 ID: 0
Read mode : SecureUtilize accurate stream : YesDefeat audio cache : YesMake use of C2 pointers : No
Read offset correction : 102Overread into Lead-In and Lead-Out : NoFill up missing offset samples with silence : YesDelete leading and trailing silent blocks : NoNull samples used in CRC calculations : YesUsed interface : Native Win32 interface for Win NT & 2000
Used output format : User Defined EncoderSelected bitrate : 896 kBit/sQuality : HighAdd ID3 tag : NoCommand line compressor : D:\Programs\Exact Audio Copy\Flac\flac.exeAdditional command line options : -8 -V -T "artist=%artist%" -T "album=%albumtitle%" -T "date=%year%" -T "genre=%genre%" -T "comment=Ripped Using EAC (Secure Mode)" %source%
TOC of the extracted CD
Track | Start | Length | Start sector | End sector --------------------------------------------------------- 1 | 0:00.00 | 4:52.36 | 0 | 21935 2 | 4:52.36 | 5:55.29 | 21936 | 48589 3 | 10:47.65 | 4:47.50 | 48590 | 70164 4 | 15:35.40 | 11:00.09 | 70165 | 119673 5 | 26:35.49 | 5:15.72 | 119674 | 143370 6 | 31:51.46 | 3:42.44 | 143371 | 160064 7 | 35:34.15 | 3:12.53 | 160065 | 174517 8 | 38:46.68 | 5:41.18 | 174518 | 200110 9 | 44:28.11 | 8:39.17 | 200111 | 239052 10 | 53:07.28 | 3:33.63 | 239053 | 255090 11 | 56:41.16 | 6:00.71 | 255091 | 282161 12 | 62:42.12 | 7:54.03 | 282162 | 317714
Range status and errors
Selected range
Filename D:\MY MUSIC\### FLAC\NEW\Gryphon - ReInvention\Gryphon - ReInvention.wav
Peak level 100.0 % Extraction speed 5.2 X Range quality 100.0 % Test CRC 36FC3CBC Copy CRC 36FC3CBC Copy OK
No errors occurred
AccurateRip summary
Track 1 not present in databaseTrack 2 not present in databaseTrack 3 not present in databaseTrack 4 not present in databaseTrack 5 not present in databaseTrack 6 not present in databaseTrack 7 not present in databaseTrack 8 not present in databaseTrack 9 not present in databaseTrack 10 not present in databaseTrack 11 not present in databaseTrack 12 not present in database
None of the tracks are present in the AccurateRip database
End of status report
---- CUETools DB Plugin V2.1.6
[CTDB TOCID: vI24i7_6gwRzNdjtqFadVemP8ZU-] foundSubmit result: vI24i7_6gwRzNdjtqFadVemP8ZU- has been confirmedTrack | CTDB Status 1 | (1/1) Accurately ripped 2 | (1/1) Accurately ripped 3 | (1/1) Accurately ripped 4 | (1/1) Accurately ripped 5 | (1/1) Accurately ripped 6 | (1/1) Accurately ripped 7 | (1/1) Accurately ripped 8 | (1/1) Accurately ripped 9 | (1/1) Accurately ripped 10 | (1/1) Accurately ripped 11 | (1/1) Accurately ripped 12 | (1/1) Accurately ripped
==== Log checksum 020BECF15042FD7710EC7796EBD71A1D7BEE98112910D2735E5D1087075CC296 ====

.cue

REM GENRE Progressive RockREM DATE 2018REM DISCID B8108C0CREM COMMENT ExactAudioCopy v1.3PERFORMER "Gryphon"TITLE "ReInvention"FILE "Gryphon - ReInvention.flac" WAVE  TRACK 01 AUDIO    TITLE "PipeUp Downsland DerryDellDanko"    INDEX 01 00:00:00  TRACK 02 AUDIO    TITLE "Rhubarb Crumhorn"    INDEX 01 04:52:36  TRACK 03 AUDIO    TITLE "A Futuristic Auntyquarian"    INDEX 01 10:47:65  TRACK 04 AUDIO    TITLE "Haddocks' Eyes"    INDEX 01 15:35:40  TRACK 05 AUDIO    TITLE "Hampton Caught"    INDEX 01 26:35:49  TRACK 06 AUDIO    TITLE "Hospitality At A Price...(Dennis) Anyone For?"    INDEX 01 31:51:46  TRACK 07 AUDIO    TITLE "Dumbe Dum Chit"    INDEX 01 35:34:15  TRACK 08 AUDIO    TITLE "Bathsheba"    INDEX 01 38:46:68  TRACK 09 AUDIO    TITLE "Sailor V"    INDEX 01 44:28:11  TRACK 10 AUDIO    TITLE "Ashes"    INDEX 01 53:07:28  TRACK 11 AUDIO    TITLE "The Euphrates Connection"    INDEX 01 56:41:16  TRACK 12 AUDIO    TITLE "New Dances"    INDEX 00 62:40:12    INDEX 01 62:42:12

CueTools

[CUETools log; Date: 2018.10.11. 12:22:49; Version: 2.1.6][CTDB TOCID: vI24i7_6gwRzNdjtqFadVemP8ZU-] found.Track | CTDB Status  1   | (2/2) Accurately ripped  2   | (2/2) Accurately ripped  3   | (2/2) Accurately ripped  4   | (2/2) Accurately ripped  5   | (2/2) Accurately ripped  6   | (2/2) Accurately ripped  7   | (2/2) Accurately ripped  8   | (2/2) Accurately ripped  9   | (2/2) Accurately ripped 10   | (2/2) Accurately ripped 11   | (2/2) Accurately ripped 12   | (2/2) Accurately ripped[AccurateRip ID: 001f0343-01214ba3-b8108c0c] disk not present in database.
Track Peak [ CRC32 ] [W/O NULL] [ LOG ] -- 100,0 [36FC3CBC] [9D244343] CRC32 01 99,9 [5585C324] [6146D785] 02 99,9 [7EE97D15] [44A96B9E] 03 99,7 [310A376D] [6FCBB4C8] 04 99,9 [8C1B3DC1] [A286E9D2] 05 99,9 [C46530DB] [488D6D60] 06 99,8 [D983C89F] [E986B160] 07 100,0 [50B29FC4] [5462891F] 08 99,9 [401DE9DC] [8D54F3A5] 09 99,9 [8E37B02A] [615E040B] 10 100,0 [12EC28C2] [2C849BB8] 11 99,9 [97FDD150] [B8527C76] 12 96,2 [F393B26C] [71FC6C62]
источник: Ekvilibrista
Вы не можете начинать темы
Вы не можете отвечать на сообщения
Вы не можете редактировать свои сообщения
Вы не можете удалять свои сообщения
Вы не можете голосовать в опросах
Вы не можете прикреплять файлы к сообщениям
Вы можете скачивать файлы
!ВНИМАНИЕ!

Сайт не предоставляет электронные версии произведений, а занимается лишь коллекционированием и каталогизацией ссылок, присылаемых и публикуемых на форуме нашими читателями. Если вы являетесь правообладателем какого-либо представленного материала и не желаете, чтобы ссылка на него находилась в нашем каталоге, свяжитесь с нами, и мы незамедлительно удалим ее. Файлы для обмена на трекере предоставлены пользователями сайта, и администрация не несет ответственности за их содержание. Просьба не заливать файлы, защищенные авторскими правами, а также файлы нелегального содержания!

Искали программы, игры, дополнения, музыка mp3, аниме, аудио книги, журналы? Добро пожаловать на свободный торрент трекер Torrents, у нас можно скачать бесплатно, без смс и регистрации и прочих ограничений лучшие, отборные сборки программ, игр. Скачать торрентом не составит труда даже не опытному пользователю. Раздачи ежедневно обновляются, только лучшие и качественные раздачи, подробные описания и скриншоты. Огромная коллекция программ для работы со звуком, графикой, дизайном, а так же множество плагинов и инструментов к ним с подробной инструкцией и рекомендациями. Прошивки для навигаторов, карты. Разнообразные игры, для Windows, Linux. В коллекцие есть и старые игры любых жанров, Rpg, Action, Shooter, strategy Множество дополнений, модификаций, сценариев для популярных игр в жанре экш, рпг, гонки, стратегии, логические игры. Множество аддонов и сценариев для Microsoft Flight Simulator Большая коллекция книг, учебников. Если нет возможности купить печатное издание - смело скачивайте цифровую версию книги или, быть может, журнала. Не любите читать - можно загрузить бесплатно аудикнигу. Для веб дизайнеров и программистов так же найдется множество специализированного софта, таких как: редакторы с подсветкой, среды программирования, компоненты, системы управления базами данных, разнообразные скрипты и шаблоны. Не так давно у нас появился материал для автолюбителей и владельцев мото - оригинальные и неоригинальные каталоги запчастей, книги и журналы по ремонту и обслуживанию, видеоуроки, статьи по чип тюнингу, прошивкам. Процедура получения контента элементарная, достаточно просто скачать торрент файл и добавить его в загрузку в вашем торрент клиенте. Если у вас нет специального торрент клиента, вы можете его скачать у нас.