(Neo-Prog/Crossover Prog) [WEB] Carptree - Subimago - 2018, FLAC (tracks), lossless 

Цитировать
-Carptree / Subimago- -
Жанр: Neo-Prog/Crossover Prog
Носитель: WEB
Год издания: 2018
Страна исполнителя (группы): Sweden
Аудиокодек: FLAC (*.flac)
Тип рипа: tracks
Битрейт аудио: lossless
Продолжительность: 48:51
Источник (релизер): bandcamp
Наличие сканов в содержимом раздачи: нет 01. Welcome (4:00)
02. By Your Own Device (5:32)
03. World Without Mind (7:24)
04. Instead of Life (4:34)
05. Celestial Sky (6:38)
06. Someone else's Play (4:43)
07. Eye of the Storm (7:10)
08. Sum of All Senses (8:50)

Лог проверки качества

-----------------------
DON'T MODIFY THIS FILE
-----------------------
PERFORMER: auCDtect Task Manager, ver. 1.6.0 RC1 build 1.6.0.1Copyright (c) 2008-2010 y-soft. All rights reservedhttp://y-soft.org
ANALYZER: auCDtect: CD records authenticity detector, version 0.8.2Copyright (c) 2004 Oleg Berngardt. All rights reserved.Copyright (c) 2004 Alexander Djourik. All rights reserved.
FILE: 08. Sum of all senses.flac Size: 65563883 Hash: 1770BD408D08FEB0A8111F11405D3340 Accuracy: -m0 Conclusion: CDDA 99% Signature: 575400C7C8D28A4DF6068204FBE290FA12BF1E70FILE: 07. Eye of the storm.flac Size: 50118086 Hash: C369E47B8360A074E1B9612AEFAFB1ED Accuracy: -m0 Conclusion: CDDA 100% Signature: 10340D08CFC64766A86F64564E65A91E78C4A28EFILE: 06. Someone else's play.flac Size: 34730003 Hash: E068CBAEEF9D0CDAE619D075043BA511 Accuracy: -m0 Conclusion: CDDA 100% Signature: 3751C9C3AE3F873EBCE52F7403E0994B7281D4CEFILE: 05. Celestial sky.flac Size: 51118780 Hash: D2402347166667C39471CE30F1B77B40 Accuracy: -m0 Conclusion: CDDA 100% Signature: EA89477AEC7B734F09FCC0288943934072665FB8FILE: 04. Instead of life.flac Size: 23778585 Hash: BC616F3711EF88E04124B9092BEA6DB4 Accuracy: -m0 Conclusion: CDDA 100% Signature: 68FB460E03001FE79461574E4D58BA83B15D6266FILE: 03. World without mind.flac Size: 52940986 Hash: 329A4BA82F86D387D5AFFEF53FF61B49 Accuracy: -m0 Conclusion: CDDA 100% Signature: 3AE7F6A5F5C5F929991D66E6D7CCC577CA3BE8E6FILE: 02. By your own device.flac Size: 39513286 Hash: 1CB7754BC0FC612A78AE164581B51496 Accuracy: -m0 Conclusion: CDDA 100% Signature: 9B5EDE0BCA66ED406696B942CCB26ABABD8D19B3FILE: 01. Welcome.flac Size: 27638253 Hash: 50F60CA2F43A9E9B1506127D401EFEC9 Accuracy: -m0 Conclusion: CDDA 100% Signature: 623A2AFF7FE7DE69267A07F39B91F29A50BD84CD

Лог DRM

foobar2000 1.3.9 / Dynamic Range Meter 1.1.1log date: 2018-10-20 12:27:40
--------------------------------------------------------------------------------Analyzed: Carptree / Subimago--------------------------------------------------------------------------------
DR Peak RMS Duration Track--------------------------------------------------------------------------------DR8 -0.10 dB -11.29 dB 4:00 01-WelcomeDR8 -0.10 dB -11.34 dB 5:32 02-By your own deviceDR9 -0.10 dB -11.11 dB 7:24 03-World without mindDR10 -3.73 dB -16.55 dB 4:34 04-Instead of lifeDR8 -0.10 dB -9.67 dB 6:38 05-Celestial skyDR8 -0.10 dB -10.15 dB 4:43 06-Someone else's playDR8 -0.10 dB -11.40 dB 7:10 07-Eye of the stormDR7 -0.10 dB -9.15 dB 8:50 08-Sum of all senses--------------------------------------------------------------------------------
Number of tracks: 8Official DR value: DR8
Samplerate: 44100 HzChannels: 2Bits per sample: 16Bitrate: 986 kbpsCodec: FLAC================================================================================
--

Состав

- Carl Westholm / keyboards, theremin, bass, guitars, 12-string electric guitar, percussion, composer & producer
- Nicklas Flinck / lead & backing vocals, composer, lyrics
With:
No Future Orchestra
- Ulf Edelönn / acoustic & electric guitars
- Stefan Fandén / 4 & 8 string bass, 6 string & 12 string guitars, bouzouki, synth
- Jesper Skarin / drums, percussion
- Cia Backman / backing vocals
- Öivin Tronstad / backing vocals
Вы не можете начинать темы
Вы не можете отвечать на сообщения
Вы не можете редактировать свои сообщения
Вы не можете удалять свои сообщения
Вы не можете голосовать в опросах
Вы не можете прикреплять файлы к сообщениям
Вы можете скачивать файлы
!ВНИМАНИЕ!

Сайт не предоставляет электронные версии произведений, а занимается лишь коллекционированием и каталогизацией ссылок, присылаемых и публикуемых на форуме нашими читателями. Если вы являетесь правообладателем какого-либо представленного материала и не желаете, чтобы ссылка на него находилась в нашем каталоге, свяжитесь с нами, и мы незамедлительно удалим ее. Файлы для обмена на трекере предоставлены пользователями сайта, и администрация не несет ответственности за их содержание. Просьба не заливать файлы, защищенные авторскими правами, а также файлы нелегального содержания!

Искали программы, игры, дополнения, музыка mp3, аниме, аудио книги, журналы? Добро пожаловать на свободный торрент трекер Torrents, у нас можно скачать бесплатно, без смс и регистрации и прочих ограничений лучшие, отборные сборки программ, игр. Скачать торрентом не составит труда даже не опытному пользователю. Раздачи ежедневно обновляются, только лучшие и качественные раздачи, подробные описания и скриншоты. Огромная коллекция программ для работы со звуком, графикой, дизайном, а так же множество плагинов и инструментов к ним с подробной инструкцией и рекомендациями. Прошивки для навигаторов, карты. Разнообразные игры, для Windows, Linux. В коллекцие есть и старые игры любых жанров, Rpg, Action, Shooter, strategy Множество дополнений, модификаций, сценариев для популярных игр в жанре экш, рпг, гонки, стратегии, логические игры. Множество аддонов и сценариев для Microsoft Flight Simulator Большая коллекция книг, учебников. Если нет возможности купить печатное издание - смело скачивайте цифровую версию книги или, быть может, журнала. Не любите читать - можно загрузить бесплатно аудикнигу. Для веб дизайнеров и программистов так же найдется множество специализированного софта, таких как: редакторы с подсветкой, среды программирования, компоненты, системы управления базами данных, разнообразные скрипты и шаблоны. Не так давно у нас появился материал для автолюбителей и владельцев мото - оригинальные и неоригинальные каталоги запчастей, книги и журналы по ремонту и обслуживанию, видеоуроки, статьи по чип тюнингу, прошивкам. Процедура получения контента элементарная, достаточно просто скачать торрент файл и добавить его в загрузку в вашем торрент клиенте. Если у вас нет специального торрент клиента, вы можете его скачать у нас.