(Crossover Prog) [CD/WEB] Fobos - Discography - 2014-2016 (2 Albums+1 single), FLAC (tracks+.cue), lossless 

Цитировать
-Fobos - Discography - 2014-2016-
Страна исполнителя: Argentina
Жанр: Progressive Rock, Crossover Prog || Носитель: CD/WEB || Аудио кодек: FLAC || Тип рипа: (tracks + .cue) ||
Битрейт аудио: lossless || Включает: Full artwork, jpg, 600 dpi || Общая длительность: 01:44:32 ||

Об исполнителе (группе):

Fobos - это рок-группа, которая сформировалась в Буэнос-Айресе в конце 2013 - начале 2014 года. В нее вошли Бруно Кааменьо (Bruno Caamaño) (бас, вокал), Пабло Кордес (Pablo Cordes) (гитара, вокал), Баты Тутальо (Baty Tutaglio) (клавишные, вокал) и Лучано Аранда (Luciano Aranda) (барабаны). Бруно, Пабло и Баты уже более 8 лет работают совместно.
Весь материал группы создается самостоятельно и независимо. Что касается их звука, они не стремятся классифицироваться в жанре, так как они постоянно в поиске. Их влияние происходит в основном от симфонического рока 70-х годов. В их альбомах можно услышать влияние таких групп, как Genesis, Camel и Pink Floyd. К этому добавляются влияния сцены Кентербери, которые можно услышать на инструментальных треках, таких как «Hay Luz», последний трек на его дебютном альбоме, выпущенный в 2014 году.
Для живого выступления они работали до 2016 года с сессионным музыкантом Маурисио Скарафией (Mauricio Scarafia), который был частью успешной группы-трибьют Genesis: The Musical Fox.
ХРОНОЛОГИЯ
В 2014 году они выпустили свой дебютный альбом «Фобос», который был очень хорошо принят прессой и поклонниками прогрессивного жанра. Диск был продан в Японии, Франции и США.
В середине 2015 года они выпустили официальный видеоролик сингла «Legado» из своего дебютного альбома.
В конце 2015 года они выпустили свой второй альбом под названием «Exodo, Tiempo Y Espacio», концептуальный альбом. Его двумя синглами были «Atracción Interestelar» и «El Abismo».
В мае 2016 года они выпустили официальный видеоклип «El Abismo».
В середине 2016 года новый участник присоединился к группе в роли барабанщика: Лучано Аранда (Luciano Aranda), который уже сотрудничал с группой для выпуска своих двух официальных видеоклипов.
В январе 2017 года они выпустили официальный видеоклип «Atracción Interestelar», второй сингл с их альбома «Exodo, Tiempo Y Espacio».
В настоящее время они работают в студии Estudio La Terraza Progresiva над третьим альбомом.
[laterrazaprogresiva.com.ar]
---

2014 - Fobos (Bandita Discos #n/a)

Носитель: CD (Album, Digipak)
Год издания оригинала: 2014
Страна - производитель диска: Argentina
Издатель (лейбл): Bandita Discos
Номер по каталогу: n/a
Продолжительность: 42:54
Источник (релизер): Моя коллекция, мой рип

Трэклист:
1. Aurora (1:56)
2. El Sol Ya No Está Acá (3:35)
3. Vuelta Atrás (4:53)
4. Gran Señor Tretas (5:43)
5. Mi Oscuro Fantasma (7:23)
6. Amanecer (1:57)
7. Ángel de La Guarda (5:17)
8. Legado (5:18)
9. Hay Luz (6:52)

Лог создания рипа (11.10.2018)

Exact Audio Copy V1.3 from 2. September 2016
EAC extraction logfile from 11. October 2018, 22:51
Fobos / Fobos
Used drive : ATAPI iHAS122 F Adapter: 1 ID: 0
Read mode : SecureUtilize accurate stream : YesDefeat audio cache : YesMake use of C2 pointers : No
Read offset correction : 6Overread into Lead-In and Lead-Out : NoFill up missing offset samples with silence : YesDelete leading and trailing silent blocks : NoNull samples used in CRC calculations : YesUsed interface : Native Win32 interface for Win NT & 2000Gap handling : Appended to previous track
Used output format : User Defined EncoderSelected bitrate : 1024 kBit/sQuality : HighAdd ID3 tag : YesCommand line compressor : C:\Program Files (x86)\Exact Audio Copy\Flac\flac.exeAdditional command line options : -6 -V -T "ARTIST=%artist%" -T "TITLE=%title%" -T "ALBUM=%albumtitle%" -T "DATE=%year%" -T "TRACKNUMBER=%tracknr%" -T "GENRE=%genre%" -T "COMMENT=%comment%" %hascover%--picture="%coverfile%"%hascover% %source% -o %dest%
TOC of the extracted CD
Track | Start | Length | Start sector | End sector --------------------------------------------------------- 1 | 0:00.00 | 1:58.37 | 0 | 8886 2 | 1:58.37 | 3:37.62 | 8887 | 25223 3 | 5:36.24 | 4:55.50 | 25224 | 47398 4 | 10:31.74 | 5:45.12 | 47399 | 73285 5 | 16:17.11 | 7:25.12 | 73286 | 106672 6 | 23:42.23 | 1:59.25 | 106673 | 115622 7 | 25:41.48 | 5:19.25 | 115623 | 139572 8 | 31:00.73 | 5:20.00 | 139573 | 163572 9 | 36:20.73 | 6:52.12 | 163573 | 194484
Track 1
Filename E:\Music\olaf_alien\FOBOS\2014 - Fobos\01 - Aurora.wav
Pre-gap length 0:00:02.00
Peak level 97.2 % Extraction speed 3.4 X Track quality 99.9 % Test CRC AD626B96 Copy CRC AD626B96 Accurately ripped (confidence 1) [CF239A3D] (AR v2) Copy OK
Track 2
Filename E:\Music\olaf_alien\FOBOS\2014 - Fobos\02 - El Sol Ya No Esta Aca.wav
Pre-gap length 0:00:02.00
Peak level 97.2 % Extraction speed 5.5 X Track quality 100.0 % Test CRC 6519E5C5 Copy CRC 6519E5C5 Accurately ripped (confidence 1) [46D0D627] (AR v2) Copy OK
Track 3
Filename E:\Music\olaf_alien\FOBOS\2014 - Fobos\03 - Vuelta Atras.wav
Pre-gap length 0:00:02.00
Peak level 97.1 % Extraction speed 6.3 X Track quality 100.0 % Test CRC B0AEB0F6 Copy CRC B0AEB0F6 Accurately ripped (confidence 1) [D7850019] (AR v2) Copy OK
Track 4
Filename E:\Music\olaf_alien\FOBOS\2014 - Fobos\04 - Gran Senor Tretas.wav
Pre-gap length 0:00:02.00
Peak level 97.2 % Extraction speed 7.0 X Track quality 100.0 % Test CRC BF257578 Copy CRC BF257578 Accurately ripped (confidence 1) [A83C046D] (AR v2) Copy OK
Track 5
Filename E:\Music\olaf_alien\FOBOS\2014 - Fobos\05 - Mi Oscuro Fantasma.wav
Pre-gap length 0:00:02.00
Peak level 97.1 % Extraction speed 8.0 X Track quality 100.0 % Test CRC BD43841A Copy CRC BD43841A Accurately ripped (confidence 1) [7E551FE8] (AR v2) Copy OK
Track 6
Filename E:\Music\olaf_alien\FOBOS\2014 - Fobos\06 - Amanecer.wav
Pre-gap length 0:00:02.00
Peak level 81.4 % Extraction speed 7.0 X Track quality 100.0 % Test CRC 0B4B3DC7 Copy CRC 0B4B3DC7 Accurately ripped (confidence 1) [B14AF366] (AR v2) Copy OK
Track 7
Filename E:\Music\olaf_alien\FOBOS\2014 - Fobos\07 - Angel de La Guarda.wav
Pre-gap length 0:00:02.00
Peak level 97.2 % Extraction speed 7.3 X Track quality 99.9 % Test CRC BE6941EF Copy CRC BE6941EF Accurately ripped (confidence 1) [9A658684] (AR v2) Copy OK
Track 8
Filename E:\Music\olaf_alien\FOBOS\2014 - Fobos\08 - Legado.wav
Pre-gap length 0:00:02.00
Peak level 97.1 % Extraction speed 7.6 X Track quality 99.9 % Test CRC 6C409B94 Copy CRC 6C409B94 Accurately ripped (confidence 1) [CF6F77AF] (AR v2) Copy OK
Track 9
Filename E:\Music\olaf_alien\FOBOS\2014 - Fobos\09 - Hay Luz.wav
Pre-gap length 0:00:02.00
Peak level 97.2 % Extraction speed 9.6 X Track quality 100.0 % Test CRC 39F338F5 Copy CRC 39F338F5 Accurately ripped (confidence 1) [DE673C00] (AR v2) Copy OK
All tracks accurately ripped
No errors occurred
End of status report
---- CUETools DB Plugin V2.1.6
[CTDB TOCID: Y1g6UXqW4qu3SY9VjE4yBwlf7pM-] disk not present in databaseSubmit result: Y1g6UXqW4qu3SY9VjE4yBwlf7pM- has been uploaded
==== Log checksum DAB4E10E58B74BCAC62C987CE2689A889FA36B96B4F1E051BA53CC1758C0AA0D ====

Содержание индексной карты (.CUE):

REM GENRE "Progressive Rock"REM DATE 2014REM DISCID 6E0A2109REM COMMENT "ExactAudioCopy v1.3"PERFORMER "Fobos"TITLE "Fobos"REM COMPOSER ""FILE "01 - Aurora.wav" WAVE  TRACK 01 AUDIO    TITLE "Aurora"    PERFORMER "Fobos"    REM COMPOSER ""    FLAGS DCP    INDEX 01 00:00:00  TRACK 02 AUDIO    TITLE "El Sol Ya No Esta Aca"    PERFORMER "Fobos"    REM COMPOSER ""    FLAGS DCP    INDEX 00 01:56:37FILE "02 - El Sol Ya No Esta Aca.wav" WAVE    INDEX 01 00:00:00  TRACK 03 AUDIO    TITLE "Vuelta Atras"    PERFORMER "Fobos"    REM COMPOSER ""    FLAGS DCP    INDEX 00 03:35:62FILE "03 - Vuelta Atras.wav" WAVE    INDEX 01 00:00:00  TRACK 04 AUDIO    TITLE "Gran Senor Tretas"    PERFORMER "Fobos"    REM COMPOSER ""    FLAGS DCP    INDEX 00 04:53:50FILE "04 - Gran Senor Tretas.wav" WAVE    INDEX 01 00:00:00  TRACK 05 AUDIO    TITLE "Mi Oscuro Fantasma"    PERFORMER "Fobos"    REM COMPOSER ""    FLAGS DCP    INDEX 00 05:43:12FILE "05 - Mi Oscuro Fantasma.wav" WAVE    INDEX 01 00:00:00  TRACK 06 AUDIO    TITLE "Amanecer"    PERFORMER "Fobos"    REM COMPOSER ""    FLAGS DCP    INDEX 00 07:23:12FILE "06 - Amanecer.wav" WAVE    INDEX 01 00:00:00  TRACK 07 AUDIO    TITLE "Angel de La Guarda"    PERFORMER "Fobos"    REM COMPOSER ""    FLAGS DCP    INDEX 00 01:57:25FILE "07 - Angel de La Guarda.wav" WAVE    INDEX 01 00:00:00  TRACK 08 AUDIO    TITLE " Legado "    PERFORMER "Fobos"    REM COMPOSER ""    FLAGS DCP    INDEX 00 05:17:25FILE "08 -  Legado.wav" WAVE    INDEX 01 00:00:00  TRACK 09 AUDIO    TITLE "Hay Luz"    PERFORMER "Fobos"    REM COMPOSER ""    FLAGS DCP    INDEX 00 05:18:00FILE "09 - Hay Luz.wav" WAVE    INDEX 01 00:00:00

Лог проверки качества

-----------------------
DON'T MODIFY THIS FILE
-----------------------
PERFORMER: auCDtect Task Manager, ver. 1.5.1RC4 build 1.5.1.5Copyright (c) 2008-2010 y-soft. All rights reservedhttp://y-soft.org
ANALYZER: auCDtect: CD records authenticity detector, version 0.8.2Copyright (c) 2004 Oleg Berngardt. All rights reserved.Copyright (c) 2004 Alexander Djourik. All rights reserved.
FILE: 09 - Hay Luz.flac Size: 47075426 Hash: 2FE0411F142B7C4DA1E584EB2D5FC679 Accuracy: -m8 Conclusion: CDDA 100% Signature: 4ADAC876F62A6F90382F9737F1F02929F332EEDAFILE: 08 - Legado.flac Size: 34006550 Hash: 8C7951F55B2129646F2DF8FEB68A9809 Accuracy: -m8 Conclusion: CDDA 100% Signature: 64D39CD5FD5DAAFE88EDA6494139983DF2644358FILE: 07 - Angel de La Guarda.flac Size: 30893041 Hash: 9F2AD5F5D0CE7FB7843429F92A2D3629 Accuracy: -m8 Conclusion: CDDA 100% Signature: 2AE3D9AE7912E3C6C119F1EA1F627A832012F92FFILE: 06 - Amanecer.flac Size: 9958099 Hash: 53BC25585B5E1602C350D69E0979B4DD Accuracy: -m8 Conclusion: CDDA 100% Signature: 20132533D46E0EFF76FE3B3CCA7A32E55B0B3FFCFILE: 05 - Mi Oscuro Fantasma.flac Size: 42861539 Hash: 9A4A19EFB831180F243C1B1A82E3EAE3 Accuracy: -m8 Conclusion: CDDA 100% Signature: CF7B40D4BB84A4435E1AF60F16B6C7567097C104FILE: 04 - Gran Senor Tretas.flac Size: 35891319 Hash: F06C6BBC83B5E53BF13997C196E6023E Accuracy: -m8 Conclusion: CDDA 100% Signature: 0DB3CF14088F4F82908D3040CC22069F70DD0545FILE: 03 - Vuelta Atras.flac Size: 31626703 Hash: 495D2A12F44AE7D73E97CFE4A93C8088 Accuracy: -m8 Conclusion: CDDA 100% Signature: E4FE07AB441709DE9B3808FBB053832C9EA8E2CFFILE: 02 - El Sol Ya No Esta Aca.flac Size: 25110455 Hash: 99F5F760F0CA0341395C2F03301964AC Accuracy: -m8 Conclusion: CDDA 100% Signature: 8D12AA164BF7B178E356F860F125213877A32C30FILE: 01 - Aurora.flac Size: 13075125 Hash: E2FBDC35143E3223DC094FFB8E27C8FB Accuracy: -m8 Conclusion: CDDA 100% Signature: 01E69F1CD7342729E1347FCBE2D6113DBD77F1BB

Лог DRM

foobar2000 1.3.16 / Замер динамического диапазона (DR) 1.1.1Дата отчёта:  2018-10-11 22:56:56
--------------------------------------------------------------------------------Анализ: Fobos / Fobos--------------------------------------------------------------------------------
DR Пики RMS Продолжительность трека--------------------------------------------------------------------------------DR6 -0.25 дБ -8.91 дБ 1:58 01-AuroraDR8 -0.25 дБ -9.93 дБ 3:38 02-El Sol Ya No Esta AcaDR9 -0.25 дБ -11.44 дБ 4:56 03-Vuelta AtrasDR8 -0.25 дБ -11.22 дБ 5:45 04-Gran Senor TretasDR8 -0.25 дБ -12.13 дБ 7:25 05-Mi Oscuro FantasmaDR10 -1.78 дБ -14.66 дБ 1:59 06-AmanecerDR9 -0.25 дБ -12.34 дБ 5:19 07-Angel de La GuardaDR8 -0.25 дБ -11.89 дБ 5:20 08- LegadoDR6 -0.25 дБ -9.72 дБ 6:52 09-Hay Luz--------------------------------------------------------------------------------
Количество треков: 9Реальные значения DR: DR8
Частота: 44100 ГцКаналов: 2Разрядность: 16Битрейт: 914 кбит/сКодек: FLAC================================================================================
-

Состав

- Bruno Caamaño / Bass, backing vocals, drums; spanish guitar and minimoog in "Amanecer".
- Pablo Cordes / Electric guitars, voices, backing vocals, drums; piano in "Ángel de La Guarda" and mellotron in "Amanecer".
- Baty Tutaglio / Synthetizers, hammond, minimoog, mellotron, voices, backing vocals and drums

2015 - Exodo, Tiempo Y Espacio (Viajero Inmovil #n/a)

Носитель: CD (Conceptual Album, Triple Gatefold Digipak)
Год издания оригинала: 2015
Страна - производитель диска: Argentina
Издатель (лейбл): Viajero Inmovil Records
Номер по каталогу: n/a
Продолжительность: 55:30
Источник (релизер): Моя коллекция, мой рип

Трэклист:
1. Prefacio (Instrumental) (2:53)
2. Fobia (5:13)
3. Etereo (Instrumental) (1:25)
4. Bandidos Del Tiempo (10:18)
5. Atraccion Interestelar (5:40)
6. El Ascenso (2:22)
7. Portal A Nuevos Mundos (2:05)
8. Lunas De Marte (2:33)
9. Efimero (Instrumental) (1:22)
10. El Abismo (5:52)
11. Exodo (Instrumental) (2:05)
12. Suite Para Un Planeta Desahuciado (10:34)
13. Extincion (Instrumental) (3:07)

Лог создания рипа (11.10.2018)

Exact Audio Copy V1.3 from 2. September 2016
EAC extraction logfile from 11. October 2018, 22:33
Fobos / Exodo, Tiempo Y Espacio
Used drive : ATAPI iHAS122 F Adapter: 1 ID: 0
Read mode : SecureUtilize accurate stream : YesDefeat audio cache : YesMake use of C2 pointers : No
Read offset correction : 6Overread into Lead-In and Lead-Out : NoFill up missing offset samples with silence : YesDelete leading and trailing silent blocks : NoNull samples used in CRC calculations : YesUsed interface : Native Win32 interface for Win NT & 2000Gap handling : Appended to previous track
Used output format : User Defined EncoderSelected bitrate : 1024 kBit/sQuality : HighAdd ID3 tag : YesCommand line compressor : C:\Program Files (x86)\Exact Audio Copy\Flac\flac.exeAdditional command line options : -6 -V -T "ARTIST=%artist%" -T "TITLE=%title%" -T "ALBUM=%albumtitle%" -T "DATE=%year%" -T "TRACKNUMBER=%tracknr%" -T "GENRE=%genre%" -T "COMMENT=%comment%" %hascover%--picture="%coverfile%"%hascover% %source% -o %dest%
TOC of the extracted CD
Track | Start | Length | Start sector | End sector --------------------------------------------------------- 1 | 0:00.00 | 2:53.00 | 0 | 12974 2 | 2:53.00 | 5:13.00 | 12975 | 36449 3 | 8:06.00 | 1:25.00 | 36450 | 42824 4 | 9:31.00 | 10:18.37 | 42825 | 89211 5 | 19:49.37 | 5:40.37 | 89212 | 114748 6 | 25:29.74 | 2:22.00 | 114749 | 125398 7 | 27:51.74 | 2:05.00 | 125399 | 134773 8 | 29:56.74 | 2:33.04 | 134774 | 146252 9 | 32:30.03 | 1:22.65 | 146253 | 152467 10 | 33:52.68 | 5:52.28 | 152468 | 178895 11 | 39:45.21 | 2:05.32 | 178896 | 188302 12 | 41:50.53 | 10:34.18 | 188303 | 235870 13 | 52:24.71 | 3:07.33 | 235871 | 249928
Track 1
Filename E:\Music\olaf_alien\FOBOS\2015 - Exodo, Tiempo y Espacio\01 - Prefacio.wav
Pre-gap length 0:00:02.00
Peak level 96.4 % Extraction speed 3.7 X Track quality 99.9 % Test CRC 326F0B43 Copy CRC 326F0B43 Accurately ripped (confidence 1) [5E2D09D6] (AR v2) Copy OK
Track 2
Filename E:\Music\olaf_alien\FOBOS\2015 - Exodo, Tiempo y Espacio\02 - Fobia.wav
Peak level 96.4 % Extraction speed 5.8 X Track quality 100.0 % Test CRC C29463A4 Copy CRC C29463A4 Accurately ripped (confidence 1) [26E3EB71] (AR v2) Copy OK
Track 3
Filename E:\Music\olaf_alien\FOBOS\2015 - Exodo, Tiempo y Espacio\03 - Etereo.wav
Peak level 65.4 % Extraction speed 3.2 X Track quality 99.8 % Test CRC E48D9EE1 Copy CRC E48D9EE1 Accurately ripped (confidence 1) [B51C0283] (AR v2) Copy OK
Track 4
Filename E:\Music\olaf_alien\FOBOS\2015 - Exodo, Tiempo y Espacio\04 - Bandidos Del Tiempo.wav
Peak level 96.4 % Extraction speed 6.7 X Track quality 99.9 % Test CRC E419B68C Copy CRC E419B68C Accurately ripped (confidence 1) [E773795F] (AR v2) Copy OK
Track 5
Filename E:\Music\olaf_alien\FOBOS\2015 - Exodo, Tiempo y Espacio\05 - Atraccion Interestelar.wav
Peak level 96.4 % Extraction speed 7.6 X Track quality 100.0 % Test CRC ED38E5D8 Copy CRC ED38E5D8 Accurately ripped (confidence 1) [A231EB2B] (AR v2) Copy OK
Track 6
Filename E:\Music\olaf_alien\FOBOS\2015 - Exodo, Tiempo y Espacio\06 - El Ascenso.wav
Peak level 96.4 % Extraction speed 7.3 X Track quality 100.0 % Test CRC FAB12AF1 Copy CRC FAB12AF1 Accurately ripped (confidence 1) [0A293246] (AR v2) Copy OK
Track 7
Filename E:\Music\olaf_alien\FOBOS\2015 - Exodo, Tiempo y Espacio\07 - Portal A Nuevos Mundos.wav
Peak level 96.4 % Extraction speed 7.3 X Track quality 100.0 % Test CRC ADE59D1A Copy CRC ADE59D1A Accurately ripped (confidence 1) [2BF63E1F] (AR v2) Copy OK
Track 8
Filename E:\Music\olaf_alien\FOBOS\2015 - Exodo, Tiempo y Espacio\08 - Lunas De Marte.wav
Peak level 91.7 % Extraction speed 5.8 X Track quality 99.9 % Test CRC D8940BA1 Copy CRC D8940BA1 Accurately ripped (confidence 1) [DA587E8B] (AR v2) Copy OK
Track 9
Filename E:\Music\olaf_alien\FOBOS\2015 - Exodo, Tiempo y Espacio\09 - Efimero.wav
Peak level 94.3 % Extraction speed 6.7 X Track quality 100.0 % Test CRC 2508E720 Copy CRC 2508E720 Accurately ripped (confidence 1) [388CC302] (AR v2) Copy OK
Track 10
Filename E:\Music\olaf_alien\FOBOS\2015 - Exodo, Tiempo y Espacio\10 - El Abismo.wav
Peak level 96.4 % Extraction speed 9.2 X Track quality 100.0 % Test CRC 5C89D734 Copy CRC 5C89D734 Accurately ripped (confidence 1) [1106629F] (AR v2) Copy OK
Track 11
Filename E:\Music\olaf_alien\FOBOS\2015 - Exodo, Tiempo y Espacio\11 - Exodo.wav
Peak level 96.4 % Extraction speed 8.2 X Track quality 100.0 % Test CRC 59B01AD1 Copy CRC 59B01AD1 Accurately ripped (confidence 1) [82FFCF85] (AR v2) Copy OK
Track 12
Filename E:\Music\olaf_alien\FOBOS\2015 - Exodo, Tiempo y Espacio\12 - Suite Para Un Planeta Desahuciado.wav
Peak level 96.4 % Extraction speed 10.4 X Track quality 100.0 % Test CRC 6ECD9C0B Copy CRC 6ECD9C0B Accurately ripped (confidence 1) [D7C45AA8] (AR v2) Copy OK
Track 13
Filename E:\Music\olaf_alien\FOBOS\2015 - Exodo, Tiempo y Espacio\13 - Extincion.wav
Peak level 96.4 % Extraction speed 9.5 X Track quality 100.0 % Test CRC 01FFE2BF Copy CRC 01FFE2BF Accurately ripped (confidence 1) [FDC10D54] (AR v2) Copy OK
All tracks accurately ripped
No errors occurred
End of status report
---- CUETools DB Plugin V2.1.6
[CTDB TOCID: TslAsfnGRpX1UGTacHzOg5zXQaU-] foundSubmit result: TslAsfnGRpX1UGTacHzOg5zXQaU- has been confirmedTrack | CTDB Status 1 | (1/1) Accurately ripped 2 | (1/1) Accurately ripped 3 | (1/1) Accurately ripped 4 | (1/1) Accurately ripped 5 | (1/1) Accurately ripped 6 | (1/1) Accurately ripped 7 | (1/1) Accurately ripped 8 | (1/1) Accurately ripped 9 | (1/1) Accurately ripped 10 | (1/1) Accurately ripped 11 | (1/1) Accurately ripped 12 | (1/1) Accurately ripped 13 | (1/1) Accurately ripped
==== Log checksum 77273A92AFF84D302589271673549E6669280BE7B071AF52067DE37521A45601 ====

Содержание индексной карты (.CUE):

REM GENRE "Progressive Rock"REM DATE 2015REM DISCID B80D040DREM COMMENT "ExactAudioCopy v1.3"PERFORMER "Fobos"TITLE "Exodo, Tiempo Y Espacio"REM COMPOSER ""FILE "01 - Prefacio.wav" WAVE  TRACK 01 AUDIO    TITLE "Prefacio"    PERFORMER "Fobos"    REM COMPOSER ""    FLAGS DCP    INDEX 01 00:00:00FILE "02 - Fobia.wav" WAVE  TRACK 02 AUDIO    TITLE "Fobia"    PERFORMER "Fobos"    REM COMPOSER ""    FLAGS DCP    INDEX 01 00:00:00FILE "03 - Etereo.wav" WAVE  TRACK 03 AUDIO    TITLE "Etereo"    PERFORMER "Fobos"    REM COMPOSER ""    FLAGS DCP    INDEX 01 00:00:00FILE "04 - Bandidos Del Tiempo.wav" WAVE  TRACK 04 AUDIO    TITLE "Bandidos Del Tiempo"    PERFORMER "Fobos"    REM COMPOSER ""    FLAGS DCP    INDEX 01 00:00:00FILE "05 - Atraccion Interestelar.wav" WAVE  TRACK 05 AUDIO    TITLE "Atraccion Interestelar"    PERFORMER "Fobos"    REM COMPOSER ""    FLAGS DCP    INDEX 01 00:00:00FILE "06 - El Ascenso.wav" WAVE  TRACK 06 AUDIO    TITLE "El Ascenso"    PERFORMER "Fobos"    REM COMPOSER ""    FLAGS DCP    INDEX 01 00:00:00FILE "07 - Portal A Nuevos Mundos.wav" WAVE  TRACK 07 AUDIO    TITLE "Portal A Nuevos Mundos"    PERFORMER "Fobos"    REM COMPOSER ""    FLAGS DCP    INDEX 01 00:00:00FILE "08 - Lunas De Marte.wav" WAVE  TRACK 08 AUDIO    TITLE "Lunas De Marte"    PERFORMER "Fobos"    REM COMPOSER ""    FLAGS DCP    INDEX 01 00:00:00FILE "09 - Efimero.wav" WAVE  TRACK 09 AUDIO    TITLE "Efimero"    PERFORMER "Fobos"    REM COMPOSER ""    FLAGS DCP    INDEX 01 00:00:00FILE "10 - El Abismo.wav" WAVE  TRACK 10 AUDIO    TITLE "El Abismo"    PERFORMER "Fobos"    REM COMPOSER ""    FLAGS DCP    INDEX 01 00:00:00FILE "11 - Exodo.wav" WAVE  TRACK 11 AUDIO    TITLE "Exodo"    PERFORMER "Fobos"    REM COMPOSER ""    FLAGS DCP    INDEX 01 00:00:00FILE "12 - Suite Para Un Planeta Desahuciado.wav" WAVE  TRACK 12 AUDIO    TITLE "Suite Para Un Planeta Desahuciado"    PERFORMER "Fobos"    REM COMPOSER ""    FLAGS DCP    INDEX 01 00:00:00FILE "13 - Extincion.wav" WAVE  TRACK 13 AUDIO    TITLE "Extincion"    PERFORMER "Fobos"    REM COMPOSER ""    FLAGS DCP    INDEX 01 00:00:00

Лог проверки качества

-----------------------
DON'T MODIFY THIS FILE
-----------------------
PERFORMER: auCDtect Task Manager, ver. 1.5.1RC4 build 1.5.1.5Copyright (c) 2008-2010 y-soft. All rights reservedhttp://y-soft.org
ANALYZER: auCDtect: CD records authenticity detector, version 0.8.2Copyright (c) 2004 Oleg Berngardt. All rights reserved.Copyright (c) 2004 Alexander Djourik. All rights reserved.
FILE: 13 - Extincion.flac Size: 15781396 Hash: E2DDCE54F3255B446D3552E1AB950E8C Accuracy: -m8 Conclusion: CDDA 100% Signature: B33A85F1D98F4F71E57C080AE34465100E0325C7FILE: 12 - Suite Para Un Planeta Desahuciado.flac Size: 66833710 Hash: 6CECD414356A62F3215CFB5D6936A17D Accuracy: -m8 Conclusion: CDDA 100% Signature: 9E385F90AB289B47DCF13EEC76F441B6F6CFF336FILE: 11 - Exodo.flac Size: 11713779 Hash: AC080D56C39EC65CAF645018289A28B8 Accuracy: -m8 Conclusion: CDDA 100% Signature: 17570B5AC55861F3992CBA3E8175943B497621E3FILE: 10 - El Abismo.flac Size: 41383824 Hash: 5C7C710EA020387D0A714956C7699466 Accuracy: -m8 Conclusion: CDDA 100% Signature: EA13ED2162B89ADFA9FBDFC66FA7CF0CEC8CDBCFFILE: 09 - Efimero.flac Size: 7581883 Hash: 7DC2F5ED9F936AA08798ABD776E26A62 Accuracy: -m8 Conclusion: CDDA 100% Signature: 0E08F27CBDA8D28212C3EE4632299A5B1CEE6C29FILE: 08 - Lunas De Marte.flac Size: 13800414 Hash: 5F6F31FC0FD1386FF987763DE1A8955D Accuracy: -m8 Conclusion: CDDA 100% Signature: 8C429E60D79296C9670FDF71C56F0B1478F04DB1FILE: 07 - Portal A Nuevos Mundos.flac Size: 13920829 Hash: BEEA8BE7C9B2940348433E3EB7310E3F Accuracy: -m8 Conclusion: CDDA 100% Signature: 0C7C713C34CAB65434F7ACF148726E3F58A05803FILE: 06 - El Ascenso.flac Size: 16899787 Hash: 16C40A344C5FE75753D59A98C6EE06F7 Accuracy: -m8 Conclusion: CDDA 99% Signature: EC7AA85A4A66F8B87A791F6B4F423E089A3AC242FILE: 05 - Atraccion Interestelar.flac Size: 38236314 Hash: 03BBBBCF8CB4F8C4F7DDF6479668A179 Accuracy: -m8 Conclusion: CDDA 100% Signature: 20C765FB1CCB4FE1EB6F165D05D1288894894401FILE: 04 - Bandidos Del Tiempo.flac Size: 67068465 Hash: 81C74946939BCEF71578DA585F66D19E Accuracy: -m8 Conclusion: CDDA 99% Signature: 525710D7F03E1244FA6D7E36A18991358468FD62FILE: 03 - Etereo.flac Size: 6325006 Hash: ED2F2EBA8010A53F5BDB9BFEB9BBF47D Accuracy: -m8 Conclusion: CDDA 100% Signature: 93F342233114D4B09134C491F3C3688FDFBF6DFFFILE: 02 - Fobia.flac Size: 36679050 Hash: C8FD48FBD21AE3652848517327681E28 Accuracy: -m8 Conclusion: CDDA 100% Signature: F2EB277732D1A27C6EE4ED0A4C4B60874B47B950FILE: 01 - Prefacio.flac Size: 16198761 Hash: 2E43CA3E0AB4BE8A0CD2FD11A3B52EF6 Accuracy: -m8 Conclusion: CDDA 100% Signature: 4BAD6EE7D0683A4F1AB6E91FFB891796B5873A93

Лог DRM

foobar2000 1.3.16 / Замер динамического диапазона (DR) 1.1.1Дата отчёта:  2018-10-11 22:56:39
--------------------------------------------------------------------------------Анализ: Fobos / Exodo, Tiempo Y Espacio--------------------------------------------------------------------------------
DR Пики RMS Продолжительность трека--------------------------------------------------------------------------------DR8 -0.32 дБ -11.56 дБ 2:53 01-PrefacioDR8 -0.32 дБ -10.08 дБ 5:13 02-FobiaDR9 -3.68 дБ -16.22 дБ 1:25 03-EtereoDR7 -0.32 дБ -9.52 дБ 10:18 04-Bandidos Del TiempoDR7 -0.32 дБ -9.72 дБ 5:40 05-Atraccion InterestelarDR7 -0.32 дБ -9.15 дБ 2:22 06-El AscensoDR8 -0.32 дБ -10.47 дБ 2:05 07-Portal A Nuevos MundosDR10 -0.75 дБ -14.54 дБ 2:33 08-Lunas De MarteDR11 -0.50 дБ -15.73 дБ 1:23 09-EfimeroDR7 -0.32 дБ -9.56 дБ 5:52 10-El AbismoDR8 -0.32 дБ -10.16 дБ 2:05 11-ExodoDR8 -0.32 дБ -11.56 дБ 10:34 12-Suite Para Un Planeta DesahuciadoDR10 -0.32 дБ -13.04 дБ 3:07 13-Extincion--------------------------------------------------------------------------------
Количество треков: 13Реальные значения DR: DR8
Частота: 44100 ГцКаналов: 2Разрядность: 16Битрейт: 673 кбит/сКодек: FLAC================================================================================
-

Состав

- Bruno Caamaño / bass, drum programming, Spanish guitar (11), piano (3, 9), backing vocals
- Pablo Cordes / electric guitar, vocals, drum programming, effects
- Cristian "Baty" Tutaglio / synthesizers, hammond, mellotron, piano, vocals

2016 - El Viajero y Su Sombra (b-side) (WEB release)

Носитель: WEB (Album)
Год издания оригинала: 2016
Издатель (лейбл): WEB Release
Номер по каталогу: n/a
Продолжительность: 06:08
Источник (релизер): Bandcamp
Трэклист:
1. El Viajero y Su Sombra (b-side) (6:08)

Лог проверки качества

-----------------------
DON'T MODIFY THIS FILE
-----------------------
PERFORMER: auCDtect Task Manager, ver. 1.5.1RC4 build 1.5.1.5Copyright (c) 2008-2010 y-soft. All rights reservedhttp://y-soft.org
ANALYZER: auCDtect: CD records authenticity detector, version 0.8.2Copyright (c) 2004 Oleg Berngardt. All rights reserved.Copyright (c) 2004 Alexander Djourik. All rights reserved.
FILE: Fobos - El Viajero y Su Sombra (b-side).flac Size: 40721626 Hash: 4F8EBA4DE24505D0729859DF2EB5A23F Accuracy: -m8 Conclusion: CDDA 100% Signature: 8435F690E4340A901B809B98C23951576ED74115

Лог DRM

foobar2000 1.3.16 / Замер динамического диапазона (DR) 1.1.1Дата отчёта:  2018-10-08 16:43:50
--------------------------------------------------------------------------------Статистика для: ?-El Viajero y Su Sombra (b-side)Количество сэмплов: 16242008Продолжительность: 6:08--------------------------------------------------------------------------------
Левый Правый
Пики: -0.30 дБ --- -0.26 дБСредний RMS: -9.91 дБ --- -9.48 дБDR канала: 7.16 дБ --- 7.01 дБ--------------------------------------------------------------------------------
Реальные значения DR: DR7
Частота: 44100 ГцКаналов: 2Разрядность: 16Битрейт: 881 кбит/сКодек: FLAC================================================================================
-

Состав

- Bruno Caamano / bass
- Pablo Cordes / guitars, piano, digital drums, voice and choirs
- Baty Tutaglio / Hammond, old Yamaha organ, moog and choirs

Вы не можете начинать темы
Вы не можете отвечать на сообщения
Вы не можете редактировать свои сообщения
Вы не можете удалять свои сообщения
Вы не можете голосовать в опросах
Вы не можете прикреплять файлы к сообщениям
Вы можете скачивать файлы
!ВНИМАНИЕ!

Сайт не предоставляет электронные версии произведений, а занимается лишь коллекционированием и каталогизацией ссылок, присылаемых и публикуемых на форуме нашими читателями. Если вы являетесь правообладателем какого-либо представленного материала и не желаете, чтобы ссылка на него находилась в нашем каталоге, свяжитесь с нами, и мы незамедлительно удалим ее. Файлы для обмена на трекере предоставлены пользователями сайта, и администрация не несет ответственности за их содержание. Просьба не заливать файлы, защищенные авторскими правами, а также файлы нелегального содержания!

Искали программы, игры, дополнения, музыка mp3, аниме, аудио книги, журналы? Добро пожаловать на свободный торрент трекер Torrents, у нас можно скачать бесплатно, без смс и регистрации и прочих ограничений лучшие, отборные сборки программ, игр. Скачать торрентом не составит труда даже не опытному пользователю. Раздачи ежедневно обновляются, только лучшие и качественные раздачи, подробные описания и скриншоты. Огромная коллекция программ для работы со звуком, графикой, дизайном, а так же множество плагинов и инструментов к ним с подробной инструкцией и рекомендациями. Прошивки для навигаторов, карты. Разнообразные игры, для Windows, Linux. В коллекцие есть и старые игры любых жанров, Rpg, Action, Shooter, strategy Множество дополнений, модификаций, сценариев для популярных игр в жанре экш, рпг, гонки, стратегии, логические игры. Множество аддонов и сценариев для Microsoft Flight Simulator Большая коллекция книг, учебников. Если нет возможности купить печатное издание - смело скачивайте цифровую версию книги или, быть может, журнала. Не любите читать - можно загрузить бесплатно аудикнигу. Для веб дизайнеров и программистов так же найдется множество специализированного софта, таких как: редакторы с подсветкой, среды программирования, компоненты, системы управления базами данных, разнообразные скрипты и шаблоны. Не так давно у нас появился материал для автолюбителей и владельцев мото - оригинальные и неоригинальные каталоги запчастей, книги и журналы по ремонту и обслуживанию, видеоуроки, статьи по чип тюнингу, прошивкам. Процедура получения контента элементарная, достаточно просто скачать торрент файл и добавить его в загрузку в вашем торрент клиенте. Если у вас нет специального торрент клиента, вы можете его скачать у нас.