(Psychedelic Rock) [CD] Trad, Gras Och Stenar - Trad, Gras Och Stenar = Trees, Grass And Stones - 1970 (Resource Records Sweden 1995), FLAC (tracks+.cue), lossless 

Цитировать
Trad, Gras Och Stenar - Trad, Gras Och Stenar = Trees, Grass And Stones
Жанр: Psychedelic Rock
Страна-производитель диска: Sweden
Год издания диска: 1995
Издатель (лейбл): Silence / Resource Records
Номер по каталогу: SRSCD 3602
Страна: Sweden
Аудиокодек: FLAC (*.flac)
Тип рипа: tracks+.cue
Битрейт аудио: lossless
Продолжительность: 00:37:19
Источник (релизер): Sket4er
Наличие сканов в содержимом раздачи: да
Треклист:
01. All Along The Watchtower 08:16
02. I Can't Get No Satisfaction 11:07
03. Sanningens Silverflod / The Silverriver Of Truth 03:53
04. Tegenborgsvalsen / The Waltz From Tegenborg 02:35
05. All Makt At Folket / All Power To The People 06:05
06. Svarta Parla / The Black Pearl 05:19

Лог создания рипа

Exact Audio Copy V1.3 from 2. September 2016
EAC extraction logfile from 13. October 2018, 14:09
Träd, Gräs Och Stenar / Träd, Gräs Och Stenar
Used drive : TSSTcorpCDDVDW SH-224DB Adapter: 1 ID: 0
Read mode : SecureUtilize accurate stream : YesDefeat audio cache : YesMake use of C2 pointers : No
Read offset correction : 6Overread into Lead-In and Lead-Out : NoFill up missing offset samples with silence : YesDelete leading and trailing silent blocks : NoNull samples used in CRC calculations : YesUsed interface : Native Win32 interface for Win NT & 2000Gap handling : Appended to previous track
Used output format : User Defined EncoderSelected bitrate : 1024 kBit/sQuality : HighAdd ID3 tag : NoCommand line compressor : C:\Program Files (x86)\Exact Audio Copy\win64\flac.exeAdditional command line options : -8 -V -T "ARTIST=%artist%" -T "TITLE=%title%" -T "ALBUM=%albumtitle%" -T "DATE=%year%" -T "TRACKNUMBER=%tracknr%" -T "GENRE=%genre%" -T "COMMENT=%comment%" %source% -o %dest%
TOC of the extracted CD
Track | Start | Length | Start sector | End sector --------------------------------------------------------- 1 | 0:00.00 | 8:16.23 | 0 | 37222 2 | 8:16.23 | 11:07.65 | 37223 | 87312 3 | 19:24.13 | 3:53.42 | 87313 | 104829 4 | 23:17.55 | 2:35.00 | 104830 | 116454 5 | 25:52.55 | 6:05.73 | 116455 | 143902 6 | 31:58.53 | 5:19.55 | 143903 | 167882
Track 1
Filename F:\Sket4er\Trees, Grass And – Trees, Grass And (1969) 1995\01 All Along The Watchtower.wav
Pre-gap length 0:00:02.00
Peak level 89.3 % Extraction speed 2.0 X Track quality 99.9 % Test CRC A722B1A2 Copy CRC A722B1A2 Cannot be verified as accurate (confidence 8) [67A20E46], AccurateRip returned [3F87303C] (AR v2) Copy OK
Track 2
Filename F:\Sket4er\Trees, Grass And – Trees, Grass And (1969) 1995\02 I Can't Get No Satisfaction.wav
Peak level 89.3 % Extraction speed 2.6 X Track quality 100.0 % Test CRC E9CD878B Copy CRC E9CD878B Cannot be verified as accurate (confidence 8) [C2CE11BD], AccurateRip returned [CF858936] (AR v2) Copy OK
Track 3
Filename F:\Sket4er\Trees, Grass And – Trees, Grass And (1969) 1995\03 Sanningens Silverflod , The Silverriver Of Truth.wav
Peak level 89.3 % Extraction speed 2.7 X Track quality 100.0 % Test CRC 704B5464 Copy CRC 704B5464 Cannot be verified as accurate (confidence 8) [EFBEAA5E], AccurateRip returned [27D10C27] (AR v2) Copy OK
Track 4
Filename F:\Sket4er\Trees, Grass And – Trees, Grass And (1969) 1995\04 Tegenborgsvalsen , The Waltz From Tegenborg.wav
Peak level 89.3 % Extraction speed 1.9 X Track quality 99.9 % Test CRC 2A15183A Copy CRC 2A15183A Cannot be verified as accurate (confidence 8) [48B770AB], AccurateRip returned [B6D3A898] (AR v2) Copy OK
Track 5
Filename F:\Sket4er\Trees, Grass And – Trees, Grass And (1969) 1995\05 All Makt Åt Folket , All Power To The People.wav
Peak level 84.9 % Extraction speed 3.0 X Track quality 100.0 % Test CRC CD19015C Copy CRC CD19015C Cannot be verified as accurate (confidence 8) [A838E251], AccurateRip returned [40EB8A68] (AR v2) Copy OK
Track 6
Filename F:\Sket4er\Trees, Grass And – Trees, Grass And (1969) 1995\06 Svarta Pärla , The Black Pearl.wav
Peak level 73.6 % Extraction speed 2.7 X Track quality 99.9 % Test CRC 050AE99A Copy CRC 050AE99A Cannot be verified as accurate (confidence 8) [B830BD13], AccurateRip returned [DC5D7632] (AR v2) Copy OK
No tracks could be verified as accurateYou may have a different pressing from the one(s) in the database
No errors occurred
End of status report
---- CUETools DB Plugin V2.1.6
[CTDB TOCID: 7iZK04ytbiS_.i9wFMHimc7mTqo-] foundSubmit result: 7iZK04ytbiS_.i9wFMHimc7mTqo- has been confirmedTrack | CTDB Status 1 | (12/12) Accurately ripped 2 | (11/12) Accurately ripped 3 | (12/12) Accurately ripped 4 | (12/12) Accurately ripped 5 | (12/12) Accurately ripped 6 | (12/12) Accurately ripped
==== Log checksum 51E4CE1F98D6DE28B416DC113A0891AF68B696D0FD3AC3E319FD5870D2DF8EA6 ====

Содержание индексной карты (.CUE)

REM GENRE "Progressive Rock"REM DATE 1969REM DISCID 5608BE06REM COMMENT "ExactAudioCopy v1.3"PERFORMER "Trad, Gras Och Stenar"TITLE "Trad, Gras Och Stenar"REM COMPOSER ""FILE "01 All Along The Watchtower.wav" WAVE  TRACK 01 AUDIO    TITLE "All Along The Watchtower"    PERFORMER "Trad, Gras Och Stenar"    REM COMPOSER ""    INDEX 01 00:00:00FILE "02 I Can't Get No Satisfaction.wav" WAVE  TRACK 02 AUDIO    TITLE "I Can't Get No Satisfaction"    PERFORMER "Trad, Gras Och Stenar"    REM COMPOSER ""    INDEX 01 00:00:00FILE "03 Sanningens Silverflod , The Silverriver Of Truth.wav" WAVE  TRACK 03 AUDIO    TITLE "Sanningens Silverflod / The Silverriver Of Truth"    PERFORMER "Trad, Gras Och Stenar"    REM COMPOSER ""    INDEX 01 00:00:00FILE "04 Tegenborgsvalsen , The Waltz From Tegenborg.wav" WAVE  TRACK 04 AUDIO    TITLE "Tegenborgsvalsen / The Waltz From Tegenborg"    PERFORMER "Trad, Gras Och Stenar"    REM COMPOSER ""    INDEX 01 00:00:00FILE "05 All Makt At Folket , All Power To The People.wav" WAVE  TRACK 05 AUDIO    TITLE "All Makt At Folket / All Power To The People"    PERFORMER "Trad, Gras Och Stenar"    REM COMPOSER ""    INDEX 01 00:00:00FILE "06 Svarta Parla , The Black Pearl.wav" WAVE  TRACK 06 AUDIO    TITLE "Svarta Parla / The Black Pearl"    PERFORMER "Trad, Gras Och Stenar"    REM COMPOSER ""    INDEX 01 00:00:00

Лог проверки качества

-----------------------
DON'T MODIFY THIS FILE
-----------------------
PERFORMER: auCDtect Task Manager, ver. 1.5.1RC4 build 1.5.1.5Copyright (c) 2008-2010 y-soft. All rights reservedhttp://y-soft.org
ANALYZER: auCDtect: CD records authenticity detector, version 0.8.2Copyright (c) 2004 Oleg Berngardt. All rights reserved.Copyright (c) 2004 Alexander Djourik. All rights reserved.
FILE: 06 Svarta Pärla , The Black Pearl.flac Size: 28336511 Hash: 0C892C958147183E5831B7F78CA68E48 Accuracy: -m0 Conclusion: CDDA 100% Signature: 20FAE1004D829C756C7D05C2FEF7772F0F58A5BEFILE: 05 All Makt Åt Folket , All Power To The People.flac Size: 32172861 Hash: 05DF8593A3A8A12C7F471CC3A51796D1 Accuracy: -m0 Conclusion: CDDA 100% Signature: A55EC166B265CF947ACEE058737DD1200067A03BFILE: 04 Tegenborgsvalsen , The Waltz From Tegenborg.flac Size: 14632932 Hash: 788913E95A5EE497289259E2732973B0 Accuracy: -m0 Conclusion: CDDA 100% Signature: 3F8D6F8525ADBFEE3318DF351E12DF55797F17E4FILE: 03 Sanningens Silverflod , The Silverriver Of Truth.flac Size: 23152972 Hash: EDA9DA565DE0B35A7EB5352ECD52CFC5 Accuracy: -m0 Conclusion: CDDA 100% Signature: 46BB048AA5FB688D29CACD03F72BE48960812066FILE: 02 I Can't Get No Satisfaction.flac Size: 80994572 Hash: C3E6C794FD3FAA040BACFD2698B7FD56 Accuracy: -m0 Conclusion: CDDA 100% Signature: 71EAACB192FB8F2FC582845582212C336805B44DFILE: 01 All Along The Watchtower.flac Size: 58455193 Hash: 247F67D4324B39CA3921426C838FFE1E Accuracy: -m0 Conclusion: CDDA 100% Signature: 4850540E9FC3ED3A8CDEA3FC6D676C07238E2C66

DR log

foobar2000 1.3.9 / Замер динамического диапазона (DR) 1.1.1Дата отчёта:  2018-10-25 14:04:28
--------------------------------------------------------------------------------Анализ: Träd, Gräs Och Stenar / Träd, Gräs Och Stenar--------------------------------------------------------------------------------
DR Пики RMS Продолжительность трека--------------------------------------------------------------------------------DR7 -0.98 дБ -9.19 дБ 8:16 01-All Along The WatchtowerDR6 -0.98 дБ -8.46 дБ 11:08 02-I Can't Get No SatisfactionDR7 -0.98 дБ -11.12 дБ 3:54 03-Sanningens Silverflod / The Silverriver Of TruthDR9 -0.98 дБ -11.16 дБ 2:35 04-Tegenborgsvalsen / The Waltz From TegenborgDR11 -1.42 дБ -16.35 дБ 6:06 05-All Makt At Folket / All Power To The PeopleDR12 -2.66 дБ -20.27 дБ 5:20 06-Svarta Parla / The Black Pearl--------------------------------------------------------------------------------
Количество треков: 6Реальные значения DR: DR9
Частота: 44100 ГцКаналов: 2Разрядность: 16Битрейт: 709 кбит/сКодек: FLAC================================================================================
Доп. информация

Состав

Bo Anders Persson - Guitar, Vocals, Violin, Flute
Arne Eriksson - Electric Piano, Cello, Flute
Torbjorn Abelli - Bass, Jew's Harp, Flute
Thomas Gartz - Drums, Jew's Harp, Flute, Vocals on "Svarta Parla / The Black Pearl"
Ulla Berglund - Jew's Harp, Vocals

Об исполнителе

Trad, Gras Och Stenar - Swedish psychedelic rock band, with roots in Parson Sound and International Harvester. In 2018 a new incarnation named themselves Traden.
http://www.progarchives.com/album.asp?id=14177
http://rateyourmusic.com/release/album/trad__gras_och_stenar/trad__gras_och_stenar/
Вы не можете начинать темы
Вы не можете отвечать на сообщения
Вы не можете редактировать свои сообщения
Вы не можете удалять свои сообщения
Вы не можете голосовать в опросах
Вы не можете прикреплять файлы к сообщениям
Вы можете скачивать файлы
!ВНИМАНИЕ!

Сайт не предоставляет электронные версии произведений, а занимается лишь коллекционированием и каталогизацией ссылок, присылаемых и публикуемых на форуме нашими читателями. Если вы являетесь правообладателем какого-либо представленного материала и не желаете, чтобы ссылка на него находилась в нашем каталоге, свяжитесь с нами, и мы незамедлительно удалим ее. Файлы для обмена на трекере предоставлены пользователями сайта, и администрация не несет ответственности за их содержание. Просьба не заливать файлы, защищенные авторскими правами, а также файлы нелегального содержания!

Искали программы, игры, дополнения, музыка mp3, аниме, аудио книги, журналы? Добро пожаловать на свободный торрент трекер Torrents, у нас можно скачать бесплатно, без смс и регистрации и прочих ограничений лучшие, отборные сборки программ, игр. Скачать торрентом не составит труда даже не опытному пользователю. Раздачи ежедневно обновляются, только лучшие и качественные раздачи, подробные описания и скриншоты. Огромная коллекция программ для работы со звуком, графикой, дизайном, а так же множество плагинов и инструментов к ним с подробной инструкцией и рекомендациями. Прошивки для навигаторов, карты. Разнообразные игры, для Windows, Linux. В коллекцие есть и старые игры любых жанров, Rpg, Action, Shooter, strategy Множество дополнений, модификаций, сценариев для популярных игр в жанре экш, рпг, гонки, стратегии, логические игры. Множество аддонов и сценариев для Microsoft Flight Simulator Большая коллекция книг, учебников. Если нет возможности купить печатное издание - смело скачивайте цифровую версию книги или, быть может, журнала. Не любите читать - можно загрузить бесплатно аудикнигу. Для веб дизайнеров и программистов так же найдется множество специализированного софта, таких как: редакторы с подсветкой, среды программирования, компоненты, системы управления базами данных, разнообразные скрипты и шаблоны. Не так давно у нас появился материал для автолюбителей и владельцев мото - оригинальные и неоригинальные каталоги запчастей, книги и журналы по ремонту и обслуживанию, видеоуроки, статьи по чип тюнингу, прошивкам. Процедура получения контента элементарная, достаточно просто скачать торрент файл и добавить его в загрузку в вашем торрент клиенте. Если у вас нет специального торрент клиента, вы можете его скачать у нас.