(World Prog) [CD] Xarhanga (Julio Pereira, Carlos Cavalheiro) - Bota fora - 1975 (CD2011), FLAC (tracks+.cue), lossless 

Цитировать
Xarhanga (Júlio Pereira, Carlos Cavalheiro) / Bota fora
Жанр: World Prog
Носитель: CD
Страна-производитель диска и страна группы: Portugal
Год издания: 1975 (CD2011)
Издатель (лейбл): Portuguese Progressive Pearls
Номер по каталогу: PPP 001
Аудиокодек: FLAC (*.flac)
Тип рипа: tracks+.cue
Битрейт аудио: lossless
Продолжительность: 49:26
Источник: what.cd
Наличие сканов в содержимом раздачи: да
Треклист:
Júlio Pereira, Carlos Cavalheiro — Bota fora [LP] (1975)
1. Pedro soldado 4:02
2. Cordas 3:38
3. Capitão Ambrósio 5:32
4. Sachilemo 3:29
5. Bota fora 3:49
6. M.P.L.A. — A vitória é certa 3:18
7. Independência 3:35
8. Viva a Guiné-Bissau livre e independente 4:26
9. A nossa homenagem 1:09
Bonus tracks
Xarhanga — Acid nightmare / Wish me luck [7" EP] (1973)
10. Acid nightmare 3:54
11. Wish me luck 4:23
Xarhanga — Great goat / Smashing life [7" EP] (1973)
12. Great goat 4:19
13. Smashing life (in a city) 3:52

Лог создания рипа

Exact Audio Copy V1.0 beta 3 from 29. August 2011
EAC extraction logfile from 25. January 2012, 16:11
Xarhanga / Bota Fora
Used drive : AOPEN DUW1608/ARR Adapter: 2 ID: 0
Read mode : SecureUtilize accurate stream : YesDefeat audio cache : YesMake use of C2 pointers : No
Read offset correction : 91Overread into Lead-In and Lead-Out : NoFill up missing offset samples with silence : YesDelete leading and trailing silent blocks : NoNull samples used in CRC calculations : YesUsed interface : Native Win32 interface for Win NT & 2000Gap handling : Appended to previous track
Used output format : User Defined EncoderSelected bitrate : 1024 kBit/sQuality : HighAdd ID3 tag : NoCommand line compressor : C:\Program Files\Exact Audio Copy\FLAC\FLAC.EXEAdditional command line options : -8 -V -T "ARTIST=%artist%" -T "TITLE=%title%" -T "ALBUM=%albumtitle%" -T "DATE=%year%" -T "TRACKNUMBER=%tracknr%" -T "GENRE=%genre%" -T "PERFORMER=%albuminterpret%" -T "COMPOSER=%composer%" %haslyrics%--tag-from-file=LYRICS="%lyricsfile%"%haslyrics% -T "ALBUMARTIST=%albumartist%" -T "DISCNUMBER=%cdnumber%" -T "TOTALDISCS=%totalcds%" -T "TOTALTRACKS=%numtracks%" -T "COMMENT=%comment%" %source% -o %dest%
TOC of the extracted CD
Track | Start | Length | Start sector | End sector --------------------------------------------------------- 1 | 0:00.00 | 4:03.40 | 0 | 18264 2 | 4:03.40 | 4:12.49 | 18265 | 37213 3 | 8:16.14 | 5:40.32 | 37214 | 62745 4 | 13:56.46 | 3:42.73 | 62746 | 79468 5 | 17:39.44 | 3:49.05 | 79469 | 96648 6 | 21:28.49 | 3:28.22 | 96649 | 112270 7 | 24:56.71 | 3:50.73 | 112271 | 129593 8 | 28:47.69 | 4:37.19 | 129594 | 150387 9 | 33:25.13 | 1:13.48 | 150388 | 155910 10 | 34:38.61 | 3:56.02 | 155911 | 173612 11 | 38:34.63 | 4:27.67 | 173613 | 193704 12 | 43:02.55 | 4:23.26 | 193705 | 213455 13 | 47:26.06 | 3:51.33 | 213456 | 230813
Track 1
Filename G:\RIPS\Xarhanga - Bota Fora - 1975 - FLAC\01 Pedro Soldado.wav
Pre-gap length 0:00:02.00
Peak level 100.0 % Extraction speed 3.0 X Track quality 100.0 % Test CRC 5861FFEE Copy CRC 5861FFEE Track not present in AccurateRip database Copy OK
Track 2
Filename G:\RIPS\Xarhanga - Bota Fora - 1975 - FLAC\02 Cordas.wav
Pre-gap length 0:00:01.74
Peak level 100.0 % Extraction speed 3.1 X Track quality 99.9 % Test CRC 14D9DE24 Copy CRC 14D9DE24 Track not present in AccurateRip database Copy OK
Track 3
Filename G:\RIPS\Xarhanga - Bota Fora - 1975 - FLAC\03 Capitão Ambrósio.wav
Pre-gap length 0:00:01.74
Peak level 100.0 % Extraction speed 2.9 X Track quality 100.0 % Test CRC 506ACA31 Copy CRC 506ACA31 Track not present in AccurateRip database Copy OK
Track 4
Filename G:\RIPS\Xarhanga - Bota Fora - 1975 - FLAC\04 Sachilemo.wav
Pre-gap length 0:00:01.74
Peak level 100.0 % Extraction speed 2.5 X Track quality 100.0 % Test CRC 305F99BB Copy CRC 305F99BB Track not present in AccurateRip database Copy OK
Track 5
Filename G:\RIPS\Xarhanga - Bota Fora - 1975 - FLAC\05 Bota Fora.wav
Pre-gap length 0:00:01.74
Peak level 100.0 % Extraction speed 2.8 X Track quality 99.9 % Test CRC 13F54B6A Copy CRC 13F54B6A Track not present in AccurateRip database Copy OK
Track 6
Filename G:\RIPS\Xarhanga - Bota Fora - 1975 - FLAC\06 M.P.L.A..wav
Pre-gap length 0:00:01.74
Peak level 100.0 % Extraction speed 2.8 X Track quality 100.0 % Test CRC 6124FA41 Copy CRC 6124FA41 Track not present in AccurateRip database Copy OK
Track 7
Filename G:\RIPS\Xarhanga - Bota Fora - 1975 - FLAC\07 Independência.wav
Pre-gap length 0:00:01.74
Peak level 100.0 % Extraction speed 3.3 X Track quality 100.0 % Test CRC D3A0ABC2 Copy CRC D3A0ABC2 Track not present in AccurateRip database Copy OK
Track 8
Filename G:\RIPS\Xarhanga - Bota Fora - 1975 - FLAC\08 Viva a Guiné-Bissau.wav
Pre-gap length 0:00:01.74
Peak level 100.0 % Extraction speed 3.0 X Track quality 100.0 % Test CRC 68F29C29 Copy CRC 68F29C29 Track not present in AccurateRip database Copy OK
Track 9
Filename G:\RIPS\Xarhanga - Bota Fora - 1975 - FLAC\09 A Nossa Homenagem.wav
Pre-gap length 0:00:01.74
Peak level 100.0 % Extraction speed 2.9 X Track quality 100.0 % Test CRC FB0F0BCE Copy CRC FB0F0BCE Track not present in AccurateRip database Copy OK
Track 10
Filename G:\RIPS\Xarhanga - Bota Fora - 1975 - FLAC\10 Acid Nightmare.wav
Pre-gap length 0:00:01.74
Peak level 100.0 % Extraction speed 3.4 X Track quality 99.9 % Test CRC FDA747C5 Copy CRC FDA747C5 Track not present in AccurateRip database Copy OK
Track 11
Filename G:\RIPS\Xarhanga - Bota Fora - 1975 - FLAC\11 Wish me luck.wav
Pre-gap length 0:00:01.74
Peak level 100.0 % Extraction speed 3.2 X Track quality 99.9 % Test CRC D1EA8FAE Copy CRC D1EA8FAE Track not present in AccurateRip database Copy OK
Track 12
Filename G:\RIPS\Xarhanga - Bota Fora - 1975 - FLAC\12 Great Goat.wav
Pre-gap length 0:00:01.74
Peak level 100.0 % Extraction speed 3.5 X Track quality 100.0 % Test CRC FAE5FA5C Copy CRC FAE5FA5C Track not present in AccurateRip database Copy OK
Track 13
Filename G:\RIPS\Xarhanga - Bota Fora - 1975 - FLAC\13 Smashing Life (In a City).wav
Pre-gap length 0:00:01.74
Peak level 100.0 % Extraction speed 3.3 X Track quality 99.9 % Test CRC 25CE6EA0 Copy CRC 25CE6EA0 Track not present in AccurateRip database Copy OK
None of the tracks are present in the AccurateRip database
No errors occurred
End of status report
==== Log checksum A89166E7742E17E465E120628AF912CD8A4B9C102AD06A0D43DB6C5AA33F2045 ====

Содержание индексной карты (.CUE)

REM GENRE "World Prog"REM DATE 1975REM DISCID BA0C050DREM COMMENT "ExactAudioCopy v1.0b3"PERFORMER "Xarhanga (Julio Pereira, Carlos Cavalheiro)"TITLE "Bota fora"FILE "01 Pedro soldado.wav" WAVE  TRACK 01 AUDIO    TITLE "Pedro soldado"    PERFORMER "Julio Pereira, Carlos Cavalheiro"    INDEX 01 00:00:00  TRACK 02 AUDIO    TITLE "Cordas"    PERFORMER "Julio Pereira, Carlos Cavalheiro"    INDEX 00 04:01:41FILE "02 Cordas.wav" WAVE    INDEX 01 00:00:00  TRACK 03 AUDIO    TITLE "Capitao Ambrosio"    PERFORMER "Julio Pereira, Carlos Cavalheiro"    INDEX 00 04:10:50FILE "03 Capitao Ambrosio.wav" WAVE    INDEX 01 00:00:00  TRACK 04 AUDIO    TITLE "Sachilemo"    PERFORMER "Julio Pereira, Carlos Cavalheiro"    INDEX 00 05:38:33FILE "04 Sachilemo.wav" WAVE    INDEX 01 00:00:00  TRACK 05 AUDIO    TITLE "Bota fora"    PERFORMER "Julio Pereira, Carlos Cavalheiro"    INDEX 00 03:40:74FILE "05 Bota fora.wav" WAVE    INDEX 01 00:00:00  TRACK 06 AUDIO    TITLE "M.P.L.A."    PERFORMER "Julio Pereira, Carlos Cavalheiro"    INDEX 00 03:47:06FILE "06 MPLA.wav" WAVE    INDEX 01 00:00:00  TRACK 07 AUDIO    TITLE "Independencia"    PERFORMER "Julio Pereira, Carlos Cavalheiro"    INDEX 00 03:26:23FILE "07 Independencia.wav" WAVE    INDEX 01 00:00:00  TRACK 08 AUDIO    TITLE "Viva a Guine-Bissau"    PERFORMER "Julio Pereira, Carlos Cavalheiro"    INDEX 00 03:48:74FILE "08 Viva a Guine-Bissau.wav" WAVE    INDEX 01 00:00:00  TRACK 09 AUDIO    TITLE "A nossa homenagem"    PERFORMER "Julio Pereira, Carlos Cavalheiro"    INDEX 00 04:35:20FILE "09 A nossa homenagem.wav" WAVE    INDEX 01 00:00:00  TRACK 10 AUDIO    TITLE "Acid nightmare"    PERFORMER "Xarhanga"    INDEX 00 01:11:49FILE "10 Acid nightmare.wav" WAVE    INDEX 01 00:00:00  TRACK 11 AUDIO    TITLE "Wish me luck"    PERFORMER "Xarhanga"    INDEX 00 03:54:03FILE "11 Wish me luck.wav" WAVE    INDEX 01 00:00:00  TRACK 12 AUDIO    TITLE "Great goat"    PERFORMER "Xarhanga"    INDEX 00 04:25:68FILE "12 Great goat.wav" WAVE    INDEX 01 00:00:00  TRACK 13 AUDIO    TITLE "Smashing life (in a city)"    PERFORMER "Xarhanga"    INDEX 00 04:21:27FILE "13 Smashing life.wav" WAVE    INDEX 01 00:00:00

О группе

This is a rare yet very curious release.
The year was 1975, one year after the revolution that ended a 40 year long dictatorship. The order to release the ultramarine countries colonized by Portugal during 400+ years had been recently given, providing freedom to countries such as Angola, Mozambique, Guiné-Bissau, Cape Verde, S.Tomé & Príncipe. In some of these countries the war had been long and tiring both for Portugal and the native inhabitants.
And within this framing events, this album was moulded and inspired. So some comprehension on these events is absolutely necessary for one to be able to understand what the album is all about.
The lyrics are in Portuguese, and they glorify the independency movements of Angola, Mozambique and Guiné-Bissau. They also hit deep and hard the belicous efforts of pré-revolution Portugal to maintain the colonies, while releasing the common soldier from guilt but incriminating the dictator regime that send people to war.
For the reader to better unsderstand, this album is the Portuguese version of the Anti-Vietnam War movement….
Anyway, musically the album sounds tremendously dated (like the lyrics, obviously), though it has some basic characteristics that have maintained its interest and originality throughout the years.
The musical basis are extremely well founded upon Portuguese Popular Music and that pre-revolucionary style known as “Intervention Music”. It mixes these two elements with some Afrikan tendencies (as the album is a tribute to the Portuguese-Spoken Afrikan Countries Liberation movements), Piano and keyboard driven Symphonic Prog and jazz. This makes it a very rare mixing and so, a very unique project.
The album also has some symphonic leanings, but in a less obvious and more naïf way than, for instance, Petrus Castrus (in which debut album Mestre, Julio Pereira also participated) and Saga). Nevertheless the piano work is omnipresent throughout and it is excellent, adding (in conjugation with other keyboards and some guitar solos) that symphonic touch.
This album also introduces the aforementioned Afrikan elements, especially on the percussive work, which entwines very well with the Portuguese Pop and the Progressive leanings.
There are several guest artists, of which I would emphasize Fausto and Vitorino that are, to this day, two of the most important Portuguese Folk/Pop composers.
A final word about the vocalizations of the album. They are ok to good, but those of Cavalheiro are tremendous!
Well, even if dated and less compelling that Petrus Castrus, Saga or Tantra, this is still one of the most important and interesting Portuguese Symphonic Progressive works of the 70’s. And a very original and unique album it is indeed!
A collectors item, no doubt. But a very good listening experience for anyone that likes odd variations on the 70’s symphonic sound, normally divided between the importance of the Anglo-Saxon, French and Italian schools. Here we have something completely different!
www.proggnosis.com (by Nuno)

Об альбоме

Альбом «Bota fora» издавался с указанием авторов «Júlio Pereira, Carlos Cavalheiro», ранние синглы — как группа «Xarhanga», хотя это одни и те же люди. На диске все это объединено. Отсюда такой странный заголовок раздачи.

Состав

Júlio Pereira — Music and Arrangements
Carlos Cavalheiro — Vocals
Featuring:
Guilherme Inês, Rui Reis, Fausto, Adriano Correia de Oliveira, Vitorino, Luis Pedro Faro, Jaime Queimado, Sónia Branca, Rui Venâncio, César augusto, Fernando Chiotte, Alexandra, Teresa and Necas
Издание имеет статус «Unofficial». Иными словами, пиратское)
Вы не можете начинать темы
Вы не можете отвечать на сообщения
Вы не можете редактировать свои сообщения
Вы не можете удалять свои сообщения
Вы не можете голосовать в опросах
Вы не можете прикреплять файлы к сообщениям
Вы можете скачивать файлы
!ВНИМАНИЕ!

Сайт не предоставляет электронные версии произведений, а занимается лишь коллекционированием и каталогизацией ссылок, присылаемых и публикуемых на форуме нашими читателями. Если вы являетесь правообладателем какого-либо представленного материала и не желаете, чтобы ссылка на него находилась в нашем каталоге, свяжитесь с нами, и мы незамедлительно удалим ее. Файлы для обмена на трекере предоставлены пользователями сайта, и администрация не несет ответственности за их содержание. Просьба не заливать файлы, защищенные авторскими правами, а также файлы нелегального содержания!

Искали программы, игры, дополнения, музыка mp3, аниме, аудио книги, журналы? Добро пожаловать на свободный торрент трекер Torrents, у нас можно скачать бесплатно, без смс и регистрации и прочих ограничений лучшие, отборные сборки программ, игр. Скачать торрентом не составит труда даже не опытному пользователю. Раздачи ежедневно обновляются, только лучшие и качественные раздачи, подробные описания и скриншоты. Огромная коллекция программ для работы со звуком, графикой, дизайном, а так же множество плагинов и инструментов к ним с подробной инструкцией и рекомендациями. Прошивки для навигаторов, карты. Разнообразные игры, для Windows, Linux. В коллекцие есть и старые игры любых жанров, Rpg, Action, Shooter, strategy Множество дополнений, модификаций, сценариев для популярных игр в жанре экш, рпг, гонки, стратегии, логические игры. Множество аддонов и сценариев для Microsoft Flight Simulator Большая коллекция книг, учебников. Если нет возможности купить печатное издание - смело скачивайте цифровую версию книги или, быть может, журнала. Не любите читать - можно загрузить бесплатно аудикнигу. Для веб дизайнеров и программистов так же найдется множество специализированного софта, таких как: редакторы с подсветкой, среды программирования, компоненты, системы управления базами данных, разнообразные скрипты и шаблоны. Не так давно у нас появился материал для автолюбителей и владельцев мото - оригинальные и неоригинальные каталоги запчастей, книги и журналы по ремонту и обслуживанию, видеоуроки, статьи по чип тюнингу, прошивкам. Процедура получения контента элементарная, достаточно просто скачать торрент файл и добавить его в загрузку в вашем торрент клиенте. Если у вас нет специального торрент клиента, вы можете его скачать у нас.