(Progressive Rock / Female Vocal) [CD] The Ryszard Kramarski Project - Sounds From The Past - 2018, FLAC (tracks+.cue), lossless 

Цитировать
The Ryszard Kramarski Project / Sounds From The Past
Жанр: Progressive Rock / Female Vocal
Носитель: CD
Страна-производитель диска (релиза): Poland
Год издания: 2018
Издатель (лейбл): Lynx Music
Номер по каталогу: LM 150 CD-DG
Страна исполнителя (группы): Poland
Аудиокодек: FLAC (*.flac)
Тип рипа: tracks +.cue
Битрейт аудио: lossless
Продолжительность: 49:04
Источник (релизер): veushka
Наличие сканов в содержимом раздачи: да
Треклист:
1. Visionary Of Heaven
2. These All Paparazzis
3. The Technology Trap
4. The Fairly Tales Of A Stranger
5. Welcome To My Channel!
6. Please Stop The Time
7. We Know Nothing
8. Sounds From The Past

Лог создания рипа

Exact Audio Copy V1.0 beta 3 from 29. August 2011
EAC extraction logfile from 9. October 2018, 21:13
TRK Project / Sounds From The Past
Used drive : HL-DT-STDVDRAM GH24NSB0 Adapter: 3 ID: 0
Read mode : SecureUtilize accurate stream : YesDefeat audio cache : YesMake use of C2 pointers : No
Read offset correction : 6Overread into Lead-In and Lead-Out : NoFill up missing offset samples with silence : YesDelete leading and trailing silent blocks : NoNull samples used in CRC calculations : YesUsed interface : Native Win32 interface for Win NT & 2000Gap handling : Appended to previous track
Used output format : User Defined EncoderSelected bitrate : 128 kBit/sQuality : HighAdd ID3 tag : NoCommand line compressor : C:\Program Files\Exact Audio Copy\FLAC\FLAC.EXEAdditional command line options : -8 -V -T "ARTIST=%artist%" -T "TITLE=%title%" -T "ALBUM=%albumtitle%" -T "DATE=%year%" -T "TRACKNUMBER=%tracknr%" -T "TOTALTRACKS=%numtracks%" -T "GENRE=%genre%" -T "ALBUMARTIST=%albumartist%" -T "ALBUM ARTIST=%albumartist%" -T "COMMENT=EAC Secure Mode, Test & Copy, AccurateRip, FLAC -8" %source%
TOC of the extracted CD
Track | Start | Length | Start sector | End sector --------------------------------------------------------- 1 | 0:00.00 | 6:27.49 | 0 | 29073 2 | 6:27.49 | 6:33.68 | 29074 | 58616 3 | 13:01.42 | 4:28.04 | 58617 | 78720 4 | 17:29.46 | 7:03.55 | 78721 | 110500 5 | 24:33.26 | 6:20.52 | 110501 | 139052 6 | 30:54.03 | 6:00.27 | 139053 | 166079 7 | 36:54.30 | 8:02.49 | 166080 | 202278 8 | 44:57.04 | 4:06.31 | 202279 | 220759
Track 1
Filename F:\Veushka\TRKProject - Sounds From The Past 2018\01 - Visionary Of Heaven.wav
Pre-gap length 0:00:02.00
Peak level 96.6 % Extraction speed 1.1 X Track quality 100.0 % Test CRC 48A521AD Copy CRC 48A521AD Track not present in AccurateRip database Copy OK
Track 2
Filename F:\Veushka\TRKProject - Sounds From The Past 2018\02 - These All Paparazzis.wav
Peak level 96.6 % Extraction speed 1.3 X Track quality 100.0 % Test CRC 7F8DEFE2 Copy CRC 7F8DEFE2 Track not present in AccurateRip database Copy OK
Track 3
Filename F:\Veushka\TRKProject - Sounds From The Past 2018\03 - The Technology Trap.wav
Peak level 96.6 % Extraction speed 1.4 X Track quality 100.0 % Test CRC E3EFE5F2 Copy CRC E3EFE5F2 Track not present in AccurateRip database Copy OK
Track 4
Filename F:\Veushka\TRKProject - Sounds From The Past 2018\04 - The Fairly Tales Of A Stranger.wav
Peak level 96.6 % Extraction speed 1.6 X Track quality 100.0 % Test CRC A800189E Copy CRC A800189E Track not present in AccurateRip database Copy OK
Track 5
Filename F:\Veushka\TRKProject - Sounds From The Past 2018\05 - Welcome To My Chanel !.wav
Peak level 96.6 % Extraction speed 1.7 X Track quality 100.0 % Test CRC 53728C7C Copy CRC 53728C7C Track not present in AccurateRip database Copy OK
Track 6
Filename F:\Veushka\TRKProject - Sounds From The Past 2018\06 - Please Stop The Time.wav
Peak level 96.6 % Extraction speed 1.8 X Track quality 100.0 % Test CRC DE3E7E5F Copy CRC DE3E7E5F Track not present in AccurateRip database Copy OK
Track 7
Filename F:\Veushka\TRKProject - Sounds From The Past 2018\07 - We Know Nothing.wav
Peak level 96.6 % Extraction speed 2.0 X Track quality 100.0 % Test CRC 8A217C4E Copy CRC 8A217C4E Track not present in AccurateRip database Copy OK
Track 8
Filename F:\Veushka\TRKProject - Sounds From The Past 2018\08 - Sounds From The Past.wav
Peak level 96.6 % Extraction speed 2.0 X Track quality 100.0 % Test CRC 69A17048 Copy CRC 69A17048 Track not present in AccurateRip database Copy OK
None of the tracks are present in the AccurateRip database
No errors occurred
End of status report
---- CUETools DB Plugin V2.1.3
[CTDB TOCID: f.vtG.n3zBWCNaUoB2Znx89NnS0-] found, Submit result: already submitted[62762249] (3/3) Accurately ripped
==== Log checksum 66F97EAF403B72AE8A7C0461A76C90738F18F8B97D5B64912D3BE0DCC2A4E6E7 ====

Содержание индексной карты (.CUE)

REM DATE 2018REM DISCID 790B7F08REM COMMENT "ExactAudioCopy v1.0b3"PERFORMER "TRK Project"TITLE "Sounds From The Past"FILE "01 - Visionary Of Heaven.wav" WAVE  TRACK 01 AUDIO    TITLE "Visionary Of Heaven"    PERFORMER "TRK Project"    INDEX 01 00:00:00FILE "02 - These All Paparazzis.wav" WAVE  TRACK 02 AUDIO    TITLE "These All Paparazzis"    PERFORMER "TRK Project"    INDEX 01 00:00:00FILE "03 - The Technology Trap.wav" WAVE  TRACK 03 AUDIO    TITLE "The Technology Trap"    PERFORMER "TRK Project"    INDEX 01 00:00:00FILE "04 - The Fairly Tales Of A Stranger.wav" WAVE  TRACK 04 AUDIO    TITLE "The Fairly Tales Of A Stranger"    PERFORMER "TRK Project"    INDEX 01 00:00:00FILE "05 - Welcome To My Chanel !.wav" WAVE  TRACK 05 AUDIO    TITLE "Welcome To My Chanel !"    PERFORMER "TRK Project"    INDEX 01 00:00:00FILE "06 - Please Stop The Time.wav" WAVE  TRACK 06 AUDIO    TITLE "Please Stop The Time "    PERFORMER "TRK Project"    INDEX 01 00:00:00FILE "07 - We Know Nothing.wav" WAVE  TRACK 07 AUDIO    TITLE "We Know Nothing"    PERFORMER "TRK Project"    INDEX 01 00:00:00FILE "08 - Sounds From The Past.wav" WAVE  TRACK 08 AUDIO    TITLE "Sounds From The Past"    PERFORMER "TRK Project"    INDEX 01 00:00:00

CUETools Log

[CUETools log; Date: 25.10.2018 13:47:32; Version: 2.1.5][CTDB TOCID: f.vtG.n3zBWCNaUoB2Znx89NnS0-] found.Track | CTDB Status  1   | (5/5) Accurately ripped  2   | (5/5) Accurately ripped  3   | (5/5) Accurately ripped  4   | (5/5) Accurately ripped  5   | (5/5) Accurately ripped  6   | (5/5) Accurately ripped  7   | (5/5) Accurately ripped  8   | (5/5) Accurately ripped[AccurateRip ID: 000f561d-006648eb-790b7f08] disk not present in database.
Track Peak [ CRC32 ] [W/O NULL] [ LOG ] -- 96,6 [C965CB69] [19A7DBC5] 01 96,6 [48A521AD] [E0306D90] CRC32 02 96,6 [7F8DEFE2] [3825DA4C] CRC32 03 96,6 [E3EFE5F2] [B62D5D48] CRC32 04 96,6 [A800189E] [23159E47] CRC32 05 96,6 [53728C7C] [8EDEF9F2] CRC32 06 96,6 [DE3E7E5F] [12657504] CRC32 07 96,6 [8A217C4E] [E8042B2F] CRC32 08 96,6 [69A17048] [E71629B7] CRC32

foo_dr

foobar2000 1.3.17 / Dynamic Range Meter 1.1.1log date: 2018-10-25 13:49:28
--------------------------------------------------------------------------------Analyzed: TRK Project / Sounds From The Past--------------------------------------------------------------------------------
DR Peak RMS Duration Track--------------------------------------------------------------------------------DR11 -0.30 dB -13.01 dB 6:28 01-Visionary Of HeavenDR10 -0.30 dB -12.35 dB 6:34 02-These All PaparazzisDR9 -0.30 dB -10.62 dB 4:28 03-The Technology TrapDR11 -0.30 dB -13.73 dB 7:04 04-The Fairly Tales Of A StrangerDR9 -0.30 dB -11.91 dB 6:21 05-Welcome To My Chanel !DR9 -0.30 dB -13.43 dB 6:00 06-Please Stop The TimeDR9 -0.30 dB -12.23 dB 8:03 07-We Know NothingDR10 -0.30 dB -13.30 dB 4:06 08-Sounds From The Past--------------------------------------------------------------------------------
Number of tracks: 8Official DR value: DR10
Samplerate: 44100 HzChannels: 2Bits per sample: 16Bitrate: 798 kbpsCodec: FLAC================================================================================

Об исполнителе (группе)

http://youtu.be/fOTv_VnBKWQ

Состав

Ryszard Kramarski – keyboards, acoustic guitar
Karolina Leszko – vocals
Marcin Kruczek – guitars
Paweł Pyzik – bass
Grzegorz Fieber – drums & percussion
Вы не можете начинать темы
Вы не можете отвечать на сообщения
Вы не можете редактировать свои сообщения
Вы не можете удалять свои сообщения
Вы не можете голосовать в опросах
Вы не можете прикреплять файлы к сообщениям
Вы можете скачивать файлы
!ВНИМАНИЕ!

Сайт не предоставляет электронные версии произведений, а занимается лишь коллекционированием и каталогизацией ссылок, присылаемых и публикуемых на форуме нашими читателями. Если вы являетесь правообладателем какого-либо представленного материала и не желаете, чтобы ссылка на него находилась в нашем каталоге, свяжитесь с нами, и мы незамедлительно удалим ее. Файлы для обмена на трекере предоставлены пользователями сайта, и администрация не несет ответственности за их содержание. Просьба не заливать файлы, защищенные авторскими правами, а также файлы нелегального содержания!

Искали программы, игры, дополнения, музыка mp3, аниме, аудио книги, журналы? Добро пожаловать на свободный торрент трекер Torrents, у нас можно скачать бесплатно, без смс и регистрации и прочих ограничений лучшие, отборные сборки программ, игр. Скачать торрентом не составит труда даже не опытному пользователю. Раздачи ежедневно обновляются, только лучшие и качественные раздачи, подробные описания и скриншоты. Огромная коллекция программ для работы со звуком, графикой, дизайном, а так же множество плагинов и инструментов к ним с подробной инструкцией и рекомендациями. Прошивки для навигаторов, карты. Разнообразные игры, для Windows, Linux. В коллекцие есть и старые игры любых жанров, Rpg, Action, Shooter, strategy Множество дополнений, модификаций, сценариев для популярных игр в жанре экш, рпг, гонки, стратегии, логические игры. Множество аддонов и сценариев для Microsoft Flight Simulator Большая коллекция книг, учебников. Если нет возможности купить печатное издание - смело скачивайте цифровую версию книги или, быть может, журнала. Не любите читать - можно загрузить бесплатно аудикнигу. Для веб дизайнеров и программистов так же найдется множество специализированного софта, таких как: редакторы с подсветкой, среды программирования, компоненты, системы управления базами данных, разнообразные скрипты и шаблоны. Не так давно у нас появился материал для автолюбителей и владельцев мото - оригинальные и неоригинальные каталоги запчастей, книги и журналы по ремонту и обслуживанию, видеоуроки, статьи по чип тюнингу, прошивкам. Процедура получения контента элементарная, достаточно просто скачать торрент файл и добавить его в загрузку в вашем торрент клиенте. Если у вас нет специального торрент клиента, вы можете его скачать у нас.