[ATV3] Новобранец / The Rookie / Сезон 1, Серия 1-2 из 13 (Грег Биман, Адам Дэвидсон, Тоа Фрейзер) [2018, США, драма, криминал, WEB-DL (1080p)] MVO (Lostfilm) + Original + Sub (eng) 

Цитировать
Новобранец / The Rookie / Сезон 1- Год выпуска: 2018
Страна: США
Жанр: драма, криминал
Продолжительность: 01:00:00
Перевод: Профессиональный (многоголосый закадровый) Lostfilm
Оригинальная аудиодорожка: Есть
Cубтитры: Русские (Forced), Английские (SDH)
Режиссёр: Грег Биман, Адам Дэвидсон, Тоа Фрейзер
Сценарий: Алекси Хоули, Элизабет Элпер, Винсент Энджелл
Продюсер: Нэйтан Филлион, Мишель Греко, Алекси Хоули
Оператор: -
Композитор: Джордан Гань
Художник: Лори Агостино, Lauren Rosenbloom, Steven M. Saylor
Монтаж: Чи Юн Чунг
В ролях: Нэйтан Филлион, Титус Макин мл., Алисса Диас, Эрик Винтер, Мелисса О’Нил, Ричард Т® Джонс, Мерседес Масон, Эфтон Уильямсон, Марсей Монро, Дэвид ДеСантос
Описание: Начинать с чистого листа всегда нелегко, особенно для уроженца маленького городка Джона Нолана, который после инцидента, перевернувшего его жизнь, решил воплотить в жизнь давнюю мечту и присоединиться к полиции Лос-Анджелеса. Возрастного новичка встречают с понятным скептицизмом, однако жизненный опыт, упорство и чувство юмора дают Джону преимущество.- -Качество: WEB-DL 1080p (iTunes US)
Контейнер: M4V
Видео: H.264/AVC, 1920x1080p (1.78:1), 23.976 fps, ~5126 kbps, ~0.103 bit/pixel
Аудио №1: Русский LC-AAC 2.0, 48 kHz, 127 kbps
Аудио №2: Русский AC3 5.1, 48 kHz, 384 kbps
Аудио №3: Английский LC-AAC 2.0, 48 kHz, 156 kbps
Аудио №4: Английский AC3 5.1, 48 kHz, 384 kbps
Субтитры №1: Английские - скрытые субтитры: CEA-608
Субтитры №2: Русские: TX3G
Субтитры №3: Английские- SDH для глухих: TX3G
Реклама: отсутствует-Новобранец, Сезон 1
The Rookie, Season 1

Список серий

01. Pilot (2018-10-16) / Пилот (22.10.2018 19:37:53)
02. Crash Course (2018-10-23)
03. The Good, the Bad and the Ugly (2018-10-30)
04. Episode 4 (2018-11-13)

iTunes Meta Tags

Name: Pilot
Sort Name: Pilot
Artist: The Rookie
Sort Artist: The Rookie
Release Date: 2018-10-17T07:00:00Z
Album: The Rookie, Season 1
Sort Album: The Rookie, Season 1
Track: 1 of 0
Disk: 1 of 1
Genre: Drama
Cover Art pieces: 1
Album Artist: The Rookie
Copyright: В© Entertainment One (eOne)/ABC Studios
Content Rating: None
HD Video: yes
Media Type: TV Show
TV Show: The Rookie
TV Episode Number: 101
Short Description: Starting over isn't easy, especially for small-town guy John Nolan who, after a life-altering incident, is pursuing his dream of being a police officer.
Long Description: Starting over isn't easy, especially for small-town guy John Nolan who, after a life-altering incident, is pursuing his dream of being a police officer.
TV Episode: 1
TV Season: 1
Artist ID: 1428005477
Playlist ID: 1428005478
Genre ID: 4001
xid: abc:vendor_id:ABC_TheRookiePilot_101
iTunes Store Country: United States

MediaInfo

General
Complete name                            : \The Rookie\Season 1\01 Pilot (1080p HD).m4v
Format                                   : MPEG-4
Codec ID                                 : M4V  (M4V /mp42/isom)
File size                                : 1.86 GiB
Duration                                 : 43 min 1 s
Overall bit rate mode                    : Variable
Overall bit rate                         : 6 186 kb/s
Collection                               : The Rookie
Season                                   : 1
Album                                    : The Rookie, Season 1
Album/Sorted by                          : The Rookie, Season 1
Album/Performer                          : The Rookie
Part                                     : 1
Part/Position                            : 1
Part/Total                               : 1
Track name                               : Pilot
Track name/Position                      : 1
Performer                                : The Rookie
Performer/Sorted by                      : The Rookie
Genre                                    : Drama
ContentType                              : TV Show
Description                              : Starting over isn't easy, especially for small-town guy John Nolan who, after a life-altering incident, is pursuing his dream of being a police officer. / Starting over isn't easy, especially for small-town guy John Nolan who, after a life-altering incident, is pursuing his dream of being an LAPD officer. As the force's oldest rookie, he's met with skepticism from some higher-ups who see him as just a walking midlife crisis. If he can't keep up with the young cops and the criminals, he'll be risking lives including his own. But if he can use his life experience, determination and sense of humor to give him an edge, he may just become a success in this new chapter of his life.
Recorded date                            : UTC 2018-10-17 07:00:00
Encoded date                             : UTC 2018-10-16 21:09:02
Tagged date                              : UTC 2018-10-16 21:09:07
Copyright                                : В© Entertainment One (eOne)/ABC Studios
Cover                                    : Yes
Rating                                   : None
AlbumTitleID                             : 1428005477
PlayListID                               : 1428005478
GenreID                                  : 4001
Part_ID                                  : 101
Title/Sort                               : Pilot
ContentRating                            : us-tv|TV-14|500|
LongDescription                          : Starting over isn't easy, especially for small-town guy John Nolan who, after a life-altering incident, is pursuing his dream of being a police officer.
Vendor                                   : abc:vendor_id:ABC_TheRookiePilot_101
Flavour                                  : 18:1080p
AppleStoreCountry                        : United States
Video
ID                                       : 1
Format                                   : AVC
Format/Info                              : Advanced Video Codec
Format profile                           : High@L4
Format settings                          : CABAC / 4 Ref Frames
Format settings, CABAC                   : Yes
Format settings, RefFrames               : 4 frames
Codec ID                                 : avc1
Codec ID/Info                            : Advanced Video Coding
Duration                                 : 43 min 1 s
Bit rate                                 : 5 126 kb/s
Maximum bit rate                         : 13.1 Mb/s
Width                                    : 1 920 pixels
Height                                   : 1 080 pixels
Display aspect ratio                     : 16:9
Frame rate mode                          : Constant
Frame rate                               : 23.976 (23976/1000) FPS
Color space                              : YUV
Chroma subsampling                       : 4:2:0
Bit depth                                : 8 bits
Scan type                                : Progressive
Bits/(Pixel*Frame)                       : 0.103
Stream size                              : 1.54 GiB (83%)
Title                                    : Core Media Video
Language                                 : English
Encoded date                             : UTC 2018-10-16 21:09:02
Tagged date                              : UTC 2018-10-16 21:09:07
Color range                              : Limited
Color primaries                          : BT.709
Transfer characteristics                 : BT.709
Matrix coefficients                      : BT.709
Audio #1
ID                                       : 2
Format                                   : AAC
Format/Info                              : Advanced Audio Codec
Format profile                           : LC
Codec ID                                 : mp4a-40-2
Duration                                 : 43 min 1 s
Bit rate mode                            : Variable
Bit rate                                 : 127 kb/s
Maximum bit rate                         : 186 kb/s
Channel(s)                               : 2 channels
Channel positions                        : Front: L R
Sampling rate                            : 48.0 kHz
Frame rate                               : 46.875 FPS (1024 SPF)
Compression mode                         : Lossy
Stream size                              : 39.0 MiB (2%)
Title                                    : Core Media Audio
Language                                 : Russian
Default                                  : Yes
Alternate group                          : 1
Encoded date                             : UTC 2018-10-22 19:37:53
Tagged date                              : UTC 2018-10-22 19:37:53
Fallback From                            : 3
Subtitles                                : 7
tagc                                     : public.translation.voice-over
Audio #2
ID                                       : 3
Format                                   : AC-3
Format/Info                              : Audio Coding 3
Format settings, Endianness              : Big
Codec ID                                 : ac-3
Duration                                 : 43 min 1 s
Bit rate mode                            : Constant
Bit rate                                 : 384 kb/s
Maximum bit rate                         : 406 kb/s
Channel(s)                               : 6 channels
Channel positions                        : Front: L C R, Side: L R, LFE
Sampling rate                            : 48.0 kHz
Frame rate                               : 31.250 FPS (1536 SPF)
Bit depth                                : 16 bits
Compression mode                         : Lossy
Stream size                              : 118 MiB (6%)
Title                                    : Core Media Audio
Language                                 : Russian
Service kind                             : Complete Main
Default                                  : Inherited From: 2
Alternate group                          : 1
Encoded date                             : UTC 2018-10-22 19:37:53
Tagged date                              : UTC 2018-10-22 19:37:53
Fallback To                              : 2
Subtitles                                : 7
tagc                                     : public.translation.voice-over
Audio #3
ID                                       : 4
Format                                   : AAC
Format/Info                              : Advanced Audio Codec
Format profile                           : LC
Codec ID                                 : mp4a-40-2
Duration                                 : 43 min 1 s
Bit rate mode                            : Variable
Bit rate                                 : 156 kb/s
Maximum bit rate                         : 254 kb/s
Channel(s)                               : 2 channels
Channel positions                        : Front: L R
Sampling rate                            : 48.0 kHz
Frame rate                               : 46.875 FPS (1024 SPF)
Compression mode                         : Lossy
Stream size                              : 47.9 MiB (3%)
Title                                    : Core Media Audio
Language                                 : English
Default                                  : No
Alternate group                          : 1
Encoded date                             : UTC 2018-10-16 21:09:02
Tagged date                              : UTC 2018-10-16 21:09:07
Fallback From                            : 6
Audio #4
ID                                       : 6
Format                                   : AC-3
Format/Info                              : Audio Coding 3
Format settings, Endianness              : Big
Codec ID                                 : ac-3
Duration                                 : 43 min 1 s
Bit rate mode                            : Constant
Bit rate                                 : 384 kb/s
Maximum bit rate                         : 406 kb/s
Channel(s)                               : 6 channels
Channel positions                        : Front: L C R, Side: L R, LFE
Sampling rate                            : 48.0 kHz
Frame rate                               : 31.250 FPS (1536 SPF)
Bit depth                                : 16 bits
Compression mode                         : Lossy
Stream size                              : 118 MiB (6%)
Title                                    : Core Media Audio
Language                                 : English
Service kind                             : Complete Main
Default                                  : No
Alternate group                          : 1
Encoded date                             : UTC 2018-10-16 21:09:02
Tagged date                              : UTC 2018-10-16 21:09:07
Fallback To                              : 4
Text #1
ID                                       : 5-CC1
Format                                   : EIA-608
Muxing mode                              : Final Cut
Codec ID                                 : c608
Duration                                 : 42 min 46 s
Bit rate mode                            : Constant
Stream size                              : 0.00 Byte (0%)
Title                                    : Core Media Closed Caption
Language                                 : English
Forced                                   : No
Encoded date                             : UTC 2018-10-16 21:09:02
Tagged date                              : UTC 2018-10-16 21:09:07
CaptionServiceName                       : CC1
Text #2
ID                                       : 7
Format                                   : Timed Text
Muxing mode                              : sbtl
Codec ID                                 : tx3g
Duration                                 : 14 min 10 s
Bit rate mode                            : Variable
Bit rate                                 : 4 b/s
Stream size                              : 436 Bytes (0%)
Title                                    : Core Media Subtitle
Language                                 : Russian
Default                                  : Yes
Forced                                   : Yes
Alternate group                          : 2
Encoded date                             : UTC 2018-10-16 21:09:02
Tagged date                              : UTC 2018-10-16 21:09:07
Subtitles For                            : 2,3
tagc                                     : public.subtitles.forced-only
Text #3
ID                                       : 8
Format                                   : Timed Text
Muxing mode                              : sbtl
Codec ID                                 : tx3g
Duration                                 : 42 min 46 s
Bit rate mode                            : Variable
Bit rate                                 : 96 b/s
Stream size                              : 30.0 KiB (0%)
Title                                    : Core Media Subtitle
Language                                 : English
Default                                  : No
Forced                                   : No
Alternate group                          : 2
Encoded date                             : UTC 2018-10-16 21:09:02
Tagged date                              : UTC 2018-10-16 21:09:07
tagc                                     : public.accessibility.transcribes-spoken-dialog

Скриншоты

Релиз подготовлен для просмотра на Apple TV, iPad, iPhone, iPod Touch.
Apple TV

Mac

iPad

iPhone
Вы не можете начинать темы
Вы не можете отвечать на сообщения
Вы не можете редактировать свои сообщения
Вы не можете удалять свои сообщения
Вы не можете голосовать в опросах
Вы не можете прикреплять файлы к сообщениям
Вы можете скачивать файлы
!ВНИМАНИЕ!

Сайт не предоставляет электронные версии произведений, а занимается лишь коллекционированием и каталогизацией ссылок, присылаемых и публикуемых на форуме нашими читателями. Если вы являетесь правообладателем какого-либо представленного материала и не желаете, чтобы ссылка на него находилась в нашем каталоге, свяжитесь с нами, и мы незамедлительно удалим ее. Файлы для обмена на трекере предоставлены пользователями сайта, и администрация не несет ответственности за их содержание. Просьба не заливать файлы, защищенные авторскими правами, а также файлы нелегального содержания!

Искали программы, игры, дополнения, музыка mp3, аниме, аудио книги, журналы? Добро пожаловать на свободный торрент трекер Torrents, у нас можно скачать бесплатно, без смс и регистрации и прочих ограничений лучшие, отборные сборки программ, игр. Скачать торрентом не составит труда даже не опытному пользователю. Раздачи ежедневно обновляются, только лучшие и качественные раздачи, подробные описания и скриншоты. Огромная коллекция программ для работы со звуком, графикой, дизайном, а так же множество плагинов и инструментов к ним с подробной инструкцией и рекомендациями. Прошивки для навигаторов, карты. Разнообразные игры, для Windows, Linux. В коллекцие есть и старые игры любых жанров, Rpg, Action, Shooter, strategy Множество дополнений, модификаций, сценариев для популярных игр в жанре экш, рпг, гонки, стратегии, логические игры. Множество аддонов и сценариев для Microsoft Flight Simulator Большая коллекция книг, учебников. Если нет возможности купить печатное издание - смело скачивайте цифровую версию книги или, быть может, журнала. Не любите читать - можно загрузить бесплатно аудикнигу. Для веб дизайнеров и программистов так же найдется множество специализированного софта, таких как: редакторы с подсветкой, среды программирования, компоненты, системы управления базами данных, разнообразные скрипты и шаблоны. Не так давно у нас появился материал для автолюбителей и владельцев мото - оригинальные и неоригинальные каталоги запчастей, книги и журналы по ремонту и обслуживанию, видеоуроки, статьи по чип тюнингу, прошивкам. Процедура получения контента элементарная, достаточно просто скачать торрент файл и добавить его в загрузку в вашем торрент клиенте. Если у вас нет специального торрент клиента, вы можете его скачать у нас.