(Jazz Rock / Fusion) [CD] Jupu Group - Ahmoo - 1975 (2018, Svart), FLAC (tracks+.cue), lossless 

Цитировать
-Jupu Group - Ahmoo- Жанр: Progressive Rock, Jazz Rock / Fusion
Носитель: CD (Album, Reissue, Remastered)
Страна-производитель диска (релиза): Finland
Год издания оригинала: 1975, LP Hi-Hat #HILP 109
Год переиздания: 2018
Издатель (лейбл): Svart Records
Номер по каталогу: SRE018 CD
Страна исполнителя (группы): Finland
Дата / место записи: Recorded in August and September 1975 at Mainos-TV Studios, Finnlevy Studios.
Аудио кодек: FLAC (*.flac)
Тип рипа: (tracks + .cue)
Битрейт аудио: lossless
Наличие сканов в содержимом раздачи: full scans, jpeg, 600 dpi
Продолжительность: 45:14
Источник (релизер): Моя коллекция, мой рип
Трэклист:
1. The Seeker 5:12
2. Ennystymätön 6:47
3. Ahmoo 9:55
4. Moment 8:02
5. Two For Eeva 8:04
6. Drops Of Rain 7:14

Лог создания рипа (23.10.2018)

Exact Audio Copy V1.3 from 2. September 2016
EAC extraction logfile from 23. October 2018, 14:55
Jupu Group / Ahmoo
Used drive : ATAPI iHAS122 F Adapter: 1 ID: 0
Read mode : SecureUtilize accurate stream : YesDefeat audio cache : YesMake use of C2 pointers : No
Read offset correction : 6Overread into Lead-In and Lead-Out : NoFill up missing offset samples with silence : YesDelete leading and trailing silent blocks : NoNull samples used in CRC calculations : YesUsed interface : Native Win32 interface for Win NT & 2000Gap handling : Appended to previous track
Used output format : User Defined EncoderSelected bitrate : 1024 kBit/sQuality : HighAdd ID3 tag : YesCommand line compressor : C:\Program Files (x86)\Exact Audio Copy\Flac\flac.exeAdditional command line options : -6 -V -T "ARTIST=%artist%" -T "TITLE=%title%" -T "ALBUM=%albumtitle%" -T "DATE=%year%" -T "TRACKNUMBER=%tracknr%" -T "GENRE=%genre%" -T "COMMENT=%comment%" %hascover%--picture="%coverfile%"%hascover% %source% -o %dest%
TOC of the extracted CD
Track | Start | Length | Start sector | End sector --------------------------------------------------------- 1 | 0:00.00 | 5:15.53 | 0 | 23677 2 | 5:15.53 | 6:50.31 | 23678 | 54458 3 | 12:06.09 | 10:00.38 | 54459 | 99496 4 | 22:06.47 | 8:05.36 | 99497 | 135907 5 | 30:12.08 | 8:08.18 | 135908 | 172525 6 | 38:20.26 | 7:14.35 | 172526 | 205110
Track 1
Filename E:\Music\olaf_alien\Jupu Group - Ahmoo (1975, Hi-Hat - 2018, Svart)\01 - The Seeker.wav
Pre-gap length 0:00:02.00
Peak level 98.3 % Extraction speed 4.5 X Track quality 99.9 % Test CRC 2CD8CDB3 Copy CRC 2CD8CDB3 Track not present in AccurateRip database Copy OK
Track 2
Filename E:\Music\olaf_alien\Jupu Group - Ahmoo (1975, Hi-Hat - 2018, Svart)\02 - Ennystymaton.wav
Pre-gap length 0:00:03.52
Peak level 98.1 % Extraction speed 6.2 X Track quality 100.0 % Test CRC 95D78F51 Copy CRC 95D78F51 Track not present in AccurateRip database Copy OK
Track 3
Filename E:\Music\olaf_alien\Jupu Group - Ahmoo (1975, Hi-Hat - 2018, Svart)\03 - Ahmoo.wav
Pre-gap length 0:00:02.34
Peak level 98.2 % Extraction speed 7.4 X Track quality 100.0 % Test CRC 8A21516B Copy CRC 8A21516B Track not present in AccurateRip database Copy OK
Track 4
Filename E:\Music\olaf_alien\Jupu Group - Ahmoo (1975, Hi-Hat - 2018, Svart)\04 - Moment.wav
Pre-gap length 0:00:04.48
Peak level 96.7 % Extraction speed 8.2 X Track quality 100.0 % Test CRC 5DD06CB6 Copy CRC 5DD06CB6 Track not present in AccurateRip database Copy OK
Track 5
Filename E:\Music\olaf_alien\Jupu Group - Ahmoo (1975, Hi-Hat - 2018, Svart)\05 - Two for Eeva.wav
Pre-gap length 0:00:03.31
Peak level 97.9 % Extraction speed 9.0 X Track quality 100.0 % Test CRC 8AE27115 Copy CRC 8AE27115 Track not present in AccurateRip database Copy OK
Track 6
Filename E:\Music\olaf_alien\Jupu Group - Ahmoo (1975, Hi-Hat - 2018, Svart)\06 - Drops of Rain.wav
Pre-gap length 0:00:03.64
Peak level 98.1 % Extraction speed 9.5 X Track quality 100.0 % Test CRC 95B6DF2D Copy CRC 95B6DF2D Track not present in AccurateRip database Copy OK
None of the tracks are present in the AccurateRip database
No errors occurred
End of status report
---- CUETools DB Plugin V2.1.6
[CTDB TOCID: axznxoxDfkyYQq7V.xhIgi.I8Tc-] disk not present in databaseSubmit result: axznxoxDfkyYQq7V.xhIgi.I8Tc- has been uploaded
==== Log checksum 07CA161F2C4B80E0752886EF4B64DB37CEF73F753679F1C9C210ED0FFFD5750D ====

Содержание индексной карты (.CUE):

REM GENRE "Progressive Rock"REM DATE 1975REM DISCID 410AAE06REM COMMENT "ExactAudioCopy v1.3"PERFORMER "Jupu Group"TITLE "Ahmoo"REM COMPOSER ""FILE "01 - The Seeker.wav" WAVE  TRACK 01 AUDIO    TITLE "The Seeker"    PERFORMER "Jupu Group"    REM COMPOSER ""    INDEX 01 00:00:00  TRACK 02 AUDIO    TITLE "Ennystymaton"    PERFORMER "Jupu Group"    REM COMPOSER ""    INDEX 00 05:12:01FILE "02 - Ennystymaton.wav" WAVE    INDEX 01 00:00:00  TRACK 03 AUDIO    TITLE "Ahmoo"    PERFORMER "Jupu Group"    REM COMPOSER ""    INDEX 00 06:47:72FILE "03 - Ahmoo.wav" WAVE    INDEX 01 00:00:00  TRACK 04 AUDIO    TITLE " Moment"    PERFORMER "Jupu Group"    REM COMPOSER ""    INDEX 00 09:55:65FILE "04 -  Moment.wav" WAVE    INDEX 01 00:00:00  TRACK 05 AUDIO    TITLE "Two for Eeva"    PERFORMER "Jupu Group"    REM COMPOSER ""    INDEX 00 08:02:05FILE "05 - Two for Eeva.wav" WAVE    INDEX 01 00:00:00  TRACK 06 AUDIO    TITLE "Drops of Rain"    PERFORMER "Jupu Group"    REM COMPOSER ""    INDEX 00 08:04:29FILE "06 - Drops of Rain.wav" WAVE    INDEX 01 00:00:00

Лог проверки качества

-----------------------
DON'T MODIFY THIS FILE
-----------------------
PERFORMER: auCDtect Task Manager, ver. 1.5.1RC4 build 1.5.1.5Copyright (c) 2008-2010 y-soft. All rights reservedhttp://y-soft.org
ANALYZER: auCDtect: CD records authenticity detector, version 0.8.2Copyright (c) 2004 Oleg Berngardt. All rights reserved.Copyright (c) 2004 Alexander Djourik. All rights reserved.
FILE: 06 - Drops of Rain.flac Size: 48744499 Hash: 139230C84B923FF9A2505B6C897139CF Accuracy: -m8 Conclusion: CDDA 100% Signature: 8C00080AC3A65A62326C27F930A059178E8FF7F5FILE: 05 - Two for Eeva.flac Size: 55514156 Hash: C0D89E6873AB3004FB6A1EBE0D0251C6 Accuracy: -m8 Conclusion: CDDA 100% Signature: A40F0F05A63F2AAFC4C7EF6863E78A06F32A14EEFILE: 04 - Moment.flac Size: 57808690 Hash: 421364505E6B792367676CDC859E5CE1 Accuracy: -m8 Conclusion: CDDA 100% Signature: 747DF84233C43DD18F1D8EAAA477092B37FB1A10FILE: 03 - Ahmoo.flac Size: 53477211 Hash: 2325591B4454D2EA0078350FE53389C5 Accuracy: -m8 Conclusion: CDDA 100% Signature: 95EA12D13027DD5BE74A85804650D8AF575903E1FILE: 02 - Ennystymaton.flac Size: 46664039 Hash: FB8B96F77B6EBB8BA121A3A5D3D3B05E Accuracy: -m8 Conclusion: CDDA 100% Signature: 1B77ECD43F1B702C0E5D7685C2E1E3F864D4DD31FILE: 01 - The Seeker.flac Size: 37815097 Hash: CA140ED982045145B331CBBD4F404CF2 Accuracy: -m8 Conclusion: CDDA 100% Signature: 1788A72895C9D0546092970D21C4E8E5808E1FC0

Лог DRM

foobar2000 1.3.16 / Замер динамического диапазона (DR) 1.1.1Дата отчёта:  2018-10-23 14:56:38
--------------------------------------------------------------------------------Анализ: Jupu Group / Ahmoo--------------------------------------------------------------------------------
DR Пики RMS Продолжительность трека--------------------------------------------------------------------------------DR10 -0.15 дБ -11.99 дБ 5:16 01-The SeekerDR11 -0.16 дБ -13.09 дБ 6:50 02-EnnystymatonDR16 -0.16 дБ -21.72 дБ 10:01 03-AhmooDR11 -0.29 дБ -13.35 дБ 8:05 04- MomentDR12 -0.18 дБ -14.47 дБ 8:08 05-Two for EevaDR11 -0.16 дБ -16.28 дБ 7:14 06-Drops of Rain--------------------------------------------------------------------------------
Количество треков: 6Реальные значения DR: DR12
Частота: 44100 ГцКаналов: 2Разрядность: 16Битрейт: 897 кбит/сКодек: FLAC================================================================================
-

Об альбоме (сборнике):

JUPU GROUP was a somewhat typical finnish prog band, as most bands in Finland (in the 70's) played some form of jazz-rock/fusion. The band was based around the violinist Juhani 'Jupu' Poutanen (hence the name Jupu Group). The music in their only album 'Ahmoo' is much in the vein of WEATHER REPORT and RETURN TO FOREVER, but no plagiarism here, and the group managed to have a sound of their own for the most part. ! By the time 'Ahmoo' was
released, the band had already disbanded as Juhani had moved to Rovaniemi to continue his studies. It's worth a spin, if you like the bands mentioned earlier, but finding 'Ahmoo' might be a difficult task, as I believe it was never released on cd. ! The first two tracks are much funkier than I expected, giving the lead role to Janne Louhivuori's electric guitar. 'The Seeker' is written by drummer Upi Sorvali and 'Ennystymätön' - another nonsense word! - , with its groove reminiscent of Stevie Wonder's 'Superstition', by violinist Juhani Poutanen. The 10- minute title track is quite different: a serene and a bit aimlessly wandering arty-farty focusing on piano and percussion. The A side is a disappointment for me as I expected airy & melodic fusion in the style of Jean Luc Ponty (foir the presence of violin). Technically this group is excellent, however. ! 'Moment' (by Poutanen) finally features the awesome violin virtuosity. Especially this 8-minute highlight track is on the level of the American fusion of the time (Weather Report, Return To Forever...).The bassist Ilkka Hanski has composed 'Two for Eeva', which starts rather boringly with the bass taking the solistic role. Usually bass solos in jazz always bore me, by the way. Little by little the track grows to be more interesting, including various phases. I like the lively piano in it. The closing track 'Drops of Rain' (by keyboard player Jukka Linkola) begins quietly in a meditative manner, and it also remains very delicate and impressionistic, evoking images of soft summer rain. Even though I was mildly disappointed at first, due to my own expectations, I believe this unique album is a grower, definitely it's full of original and fine musicianship.
[Odissey blog]

Состав

- Juhani Poutanen / violin, percussion
- Janne Louhivuori / guitars
- Jukka Linkola / keyboards, percussion
- Ilkka Hanski / bass
- Urpo Sorvali / drums, percussion
Вы не можете начинать темы
Вы не можете отвечать на сообщения
Вы не можете редактировать свои сообщения
Вы не можете удалять свои сообщения
Вы не можете голосовать в опросах
Вы не можете прикреплять файлы к сообщениям
Вы можете скачивать файлы
!ВНИМАНИЕ!

Сайт не предоставляет электронные версии произведений, а занимается лишь коллекционированием и каталогизацией ссылок, присылаемых и публикуемых на форуме нашими читателями. Если вы являетесь правообладателем какого-либо представленного материала и не желаете, чтобы ссылка на него находилась в нашем каталоге, свяжитесь с нами, и мы незамедлительно удалим ее. Файлы для обмена на трекере предоставлены пользователями сайта, и администрация не несет ответственности за их содержание. Просьба не заливать файлы, защищенные авторскими правами, а также файлы нелегального содержания!

Искали программы, игры, дополнения, музыка mp3, аниме, аудио книги, журналы? Добро пожаловать на свободный торрент трекер Torrents, у нас можно скачать бесплатно, без смс и регистрации и прочих ограничений лучшие, отборные сборки программ, игр. Скачать торрентом не составит труда даже не опытному пользователю. Раздачи ежедневно обновляются, только лучшие и качественные раздачи, подробные описания и скриншоты. Огромная коллекция программ для работы со звуком, графикой, дизайном, а так же множество плагинов и инструментов к ним с подробной инструкцией и рекомендациями. Прошивки для навигаторов, карты. Разнообразные игры, для Windows, Linux. В коллекцие есть и старые игры любых жанров, Rpg, Action, Shooter, strategy Множество дополнений, модификаций, сценариев для популярных игр в жанре экш, рпг, гонки, стратегии, логические игры. Множество аддонов и сценариев для Microsoft Flight Simulator Большая коллекция книг, учебников. Если нет возможности купить печатное издание - смело скачивайте цифровую версию книги или, быть может, журнала. Не любите читать - можно загрузить бесплатно аудикнигу. Для веб дизайнеров и программистов так же найдется множество специализированного софта, таких как: редакторы с подсветкой, среды программирования, компоненты, системы управления базами данных, разнообразные скрипты и шаблоны. Не так давно у нас появился материал для автолюбителей и владельцев мото - оригинальные и неоригинальные каталоги запчастей, книги и журналы по ремонту и обслуживанию, видеоуроки, статьи по чип тюнингу, прошивкам. Процедура получения контента элементарная, достаточно просто скачать торрент файл и добавить его в загрузку в вашем торрент клиенте. Если у вас нет специального торрент клиента, вы можете его скачать у нас.