(Progressive Freakout Fusion Rock) [CD] Karmic Juggernaut - The Dreams That Stuff Are Made Of - 2018, FLAC (image+.cue), lossless 

Цитировать
Karmic Juggernaut - The Dreams That Stuff Are Made Of
Жанр: Progressive Freakout Fusion Rock
Носитель: CD
Год издания: 2018
Издатель (лейбл): Not On Label ‎- selfreleased
Страна исполнителя (группы): USA
Аудиокодек: FLAC (*.flac)
Тип рипа: image+.cue
Битрейт аудио: lossless
Продолжительность: 01:00:38
Источник (релизер): собственный рип
Наличие сканов в содержимом раздачи: да
Треклист:
01. Bottomless Gypsy Pit
02. Krokodil
03. Robotnik
04. WKRM Emergency Broadcast
05. Frunobulax
06. Circles
07. Moving
08. On Your Mark
09. Living In A Lucid Dream
10. Goons, Buffoons, & Carnival Barkers
11. Psycho Billy's Downtown Adventure
12. Be Careful Loading Camel
13. Museum Museum

Лог создания рипа

Exact Audio Copy V1.0 beta 6 from 9. April 2015
Отчёт EAC об извлечении, выполненном 18. октября 2018, 22:01
Karmic Juggernaut / The Dreams That Stuff Are Made Of
Дисковод: hp CDDVDW SU-208CB Adapter: 0 ID: 0
Режим чтения : ДостоверностьИспользование точного потока : ДаОтключение кэша аудио : ДаИспользование указателей C2 : Нет
Коррекция смещения при чтении : 6Способность читать области Lead-in и Lead-out : НетЗаполнение пропущенных сэмплов тишиной : ДаУдаление блоков с тишиной в начале и конце : НетПри вычислениях CRC использовались нулевые сэмплы : ДаИнтерфейс : Установленный внешний ASPI-интерфейс
Выходной формат : Пользовательский кодировщикВыбранный битрейт : 1024 kBit/sКачество : ВысокийДобавление ID3-тега : НетУтилита сжатия : C:\Program Files (x86)\Exact Audio Copy\Flac\flac.exeДополнительные параметры : -V -8 -T "Date=%year%" -T "Genre=%genre%" %source%
TOC извлечённого CD
Трек | Старт | Длительность | Начальный сектор | Конечный сектор --------------------------------------------------------------------- 1 | 0:00.00 | 5:17.26 | 0 | 23800 2 | 5:17.26 | 4:51.05 | 23801 | 45630 3 | 10:08.31 | 4:46.55 | 45631 | 67135 4 | 14:55.11 | 0:44.25 | 67136 | 70460 5 | 15:39.36 | 5:03.45 | 70461 | 93230 6 | 20:43.06 | 0:49.60 | 93231 | 96965 7 | 21:32.66 | 9:00.37 | 96966 | 137502 8 | 30:33.28 | 6:14.05 | 137503 | 165557 9 | 36:47.33 | 0:56.13 | 165558 | 169770 10 | 37:43.46 | 3:33.27 | 169771 | 185772 11 | 41:16.73 | 2:45.08 | 185773 | 198155 12 | 44:02.06 | 8:55.11 | 198156 | 238291 13 | 52:57.17 | 7:40.55 | 238292 | 272846
Характеристики диапазона извлечения и сообщения об ошибках
Выбранный диапазон
Имя файла D:\MP3\Karmic Juggernaut - 2018 - The Dreams That Stuff Are Made Of\Karmic Juggernaut - The Dreams That Stuff Are Made Of.wav
Пиковый уровень 94.2 % Скорость извлечения 3.9 X Качество диапазона 100.0 % CRC теста 70FA09B7 CRC копии 70FA09B7 Копирование... OK
Ошибок не произошло
AccurateRip: сводка
Трек 1 отсутствует в базе данныхТрек 2 отсутствует в базе данныхТрек 3 отсутствует в базе данныхТрек 4 отсутствует в базе данныхТрек 5 отсутствует в базе данныхТрек 6 отсутствует в базе данныхТрек 7 отсутствует в базе данныхТрек 8 отсутствует в базе данныхТрек 9 отсутствует в базе данныхТрек 10 отсутствует в базе данныхТрек 11 отсутствует в базе данныхТрек 12 отсутствует в базе данныхТрек 13 отсутствует в базе данных
Ни одного трека нет в базе AccurateRip
Конец отчёта
---- CUETools DB Plugin V2.1.6
[CTDB TOCID: Ne5RaaOIhD4djOTo7pNFc5LXXp4-] foundSubmit result: Ne5RaaOIhD4djOTo7pNFc5LXXp4- has been confirmedTrack | CTDB Status 1 | (1/1) Accurately ripped 2 | (1/1) Accurately ripped 3 | (1/1) Accurately ripped 4 | (1/1) Accurately ripped 5 | (1/1) Accurately ripped 6 | (1/1) Accurately ripped 7 | (1/1) Accurately ripped 8 | (1/1) Accurately ripped 9 | (1/1) Accurately ripped 10 | (1/1) Accurately ripped 11 | (1/1) Accurately ripped 12 | (1/1) Accurately ripped 13 | (1/1) Accurately ripped
==== Контрольная сумма отчёта A538E59C81DDD4F631CCA8AFE8A04FBE36DC3E7E67A0CDED23A6326872F25C62 ====

Замер динамического диапазона (DR)

foobar2000 1.4 / Dynamic Range Meter 1.1.1log date: 2018-10-18 22:03:19
--------------------------------------------------------------------------------Analyzed: Karmic Juggernaut / The Dreams That Stuff Are Made Of--------------------------------------------------------------------------------
DR Peak RMS Duration Track--------------------------------------------------------------------------------DR6 -0.52 dB -8.54 dB 5:17 01-Bottomless Gypsy PitDR5 -0.52 dB -6.56 dB 4:51 02-KrokodilDR7 -0.52 dB -9.20 dB 4:47 03-RobotnikDR15 -0.52 dB -20.36 dB 0:44 04-WKRM Emergency BroadcastDR6 -0.52 dB -8.09 dB 5:04 05-FrunobulaxDR9 -0.52 dB -11.46 dB 0:50 06-CirclesDR6 -0.52 dB -8.04 dB 9:00 07-MovingDR6 -0.51 dB -8.39 dB 6:14 08-On Your MarkDR23 -1.97 dB -33.78 dB 0:56 09-Living in a Lucid DreamDR6 -0.52 dB -8.48 dB 3:33 10-Goons, Buffoons, & Carnival BarkersDR6 -0.52 dB -6.80 dB 2:45 11-Psycho Billy's Downtown AdventureDR6 -0.52 dB -8.39 dB 8:55 12-Be Careful Loading CamelDR6 -0.52 dB -8.13 dB 7:41 13-Museum Museum--------------------------------------------------------------------------------
Number of tracks: 13Official DR value: DR8
Samplerate: 44100 HzChannels: 2Bits per sample: 16Bitrate: 952 kbpsCodec: FLAC================================================================================

Об исполнителе (группе)

http://karmicjuggernaut.com/
Название стиля (или жанра) позаимствовано у них на сайте - так они определяют сами свою музыку

Состав

Randy Preston – guitar, vocals
James McCaffrey – guitar, vocals
Kevin Grossman – drums, percussion
Cody McCorry – bass, theremin, saw
Daimon Santa Maria – vocals, flute
Jake Hughes – keyboards
Extended KJ:
Ian Gray – trombone
Joe Gullace – trumpet
Joonas Lemetyinen – trombone
AJ Merlino – percussion, vibes
Вы не можете начинать темы
Вы не можете отвечать на сообщения
Вы не можете редактировать свои сообщения
Вы не можете удалять свои сообщения
Вы не можете голосовать в опросах
Вы не можете прикреплять файлы к сообщениям
Вы можете скачивать файлы
!ВНИМАНИЕ!

Сайт не предоставляет электронные версии произведений, а занимается лишь коллекционированием и каталогизацией ссылок, присылаемых и публикуемых на форуме нашими читателями. Если вы являетесь правообладателем какого-либо представленного материала и не желаете, чтобы ссылка на него находилась в нашем каталоге, свяжитесь с нами, и мы незамедлительно удалим ее. Файлы для обмена на трекере предоставлены пользователями сайта, и администрация не несет ответственности за их содержание. Просьба не заливать файлы, защищенные авторскими правами, а также файлы нелегального содержания!

Искали программы, игры, дополнения, музыка mp3, аниме, аудио книги, журналы? Добро пожаловать на свободный торрент трекер Torrents, у нас можно скачать бесплатно, без смс и регистрации и прочих ограничений лучшие, отборные сборки программ, игр. Скачать торрентом не составит труда даже не опытному пользователю. Раздачи ежедневно обновляются, только лучшие и качественные раздачи, подробные описания и скриншоты. Огромная коллекция программ для работы со звуком, графикой, дизайном, а так же множество плагинов и инструментов к ним с подробной инструкцией и рекомендациями. Прошивки для навигаторов, карты. Разнообразные игры, для Windows, Linux. В коллекцие есть и старые игры любых жанров, Rpg, Action, Shooter, strategy Множество дополнений, модификаций, сценариев для популярных игр в жанре экш, рпг, гонки, стратегии, логические игры. Множество аддонов и сценариев для Microsoft Flight Simulator Большая коллекция книг, учебников. Если нет возможности купить печатное издание - смело скачивайте цифровую версию книги или, быть может, журнала. Не любите читать - можно загрузить бесплатно аудикнигу. Для веб дизайнеров и программистов так же найдется множество специализированного софта, таких как: редакторы с подсветкой, среды программирования, компоненты, системы управления базами данных, разнообразные скрипты и шаблоны. Не так давно у нас появился материал для автолюбителей и владельцев мото - оригинальные и неоригинальные каталоги запчастей, книги и журналы по ремонту и обслуживанию, видеоуроки, статьи по чип тюнингу, прошивкам. Процедура получения контента элементарная, достаточно просто скачать торрент файл и добавить его в загрузку в вашем торрент клиенте. Если у вас нет специального торрент клиента, вы можете его скачать у нас.