Суперсемейка 2 / Incredibles 2 (Брэд Бёрд / Brad Bird ) [2018, США, Мультфильм, фантастика, боевик, комедия, приключения, семейный, WEB-DL, HD (720p)] DUB + Original + sub (rus, eng) 

Цитировать
Суперсемейка 2 / Incredibles 2
«It's been too long, dahlings»
7.520 / 10 8.00 / 10
- Год выпуска: 2018
Страна: США
Жанр: Мультфильм, фантастика, боевик, комедия, приключения, семейный
Продолжительность: 01:57:49
Перевод: Дублированный (iTunes)
Оригинальная аудиодорожка: Есть
Cубтитры: Русские форсированные, Английские форсированные, Русские, Русские SDH, Английские
Режиссёр: Брэд Бёрд
Сценарий: Брэд Бёрд
Продюсер: Николь Паради Гриндл, Джон Лассетер, Джон Уокер
Оператор: Махьяр Абусаеди, Эрик Смитт
Композитор: Майкл Джаккино
Художник: Ральф Эгглстон, Джош Холтсклоу
Монтаж: Стефен Шаффер
В ролях: Крэйг Т. Нельсон, Холли Хантер, Сара Вауэлл, Хак Милнер, Кэтрин Кинер, Илай Фучиле, Боб Оденкёрк, Сэмюэл Л. Джексон, Майкл Бёрд, София Буш
Бюджет: $200 000 000
Сборы в США: $607 748 038
Сборы в мире: + $624 087 162 = $1 231 835 200
Сборы в России: $15 541 152
Мировая премьера: 5 июня 2018
Премьера (РФ): 14 июня 2018, «WDSSPR»
Цифровой релиз: 26 октября 2018, «Уолт Дисней Компани СНГ»
Описание: После событий первой части суперсемейка пользуется повышенным вниманием со стороны журналистов. Неожиданно оказалось, что обаятельная Миссис Исключительная гораздо лучше смотрится на экране телевизора, чем её муж. Мистеру Исключительному все чаще приходится сидеть дома и приглядывать за детьми, у каждого из которых есть свои причины быть недовольным собственными суперспособностями. Однако семейным проблемам предстоит отступить на второй план, когда окажется, что спокойствию Суперсемейки угрожает новый могущественный враг.-Качество исходника: WEB-DL 720p (NNMClub)
Качество: WEB-DL
Тип: HD (720p)
Контейнер: M4V
Видео: H.264, 1280x536, 2.40:1, 3 990 Kbps, 23.976 fps
Аудио 1: Русский/Дублированный (iTunes), AAC / 2.0 / 160 Kbps / 48.0 KHz
Аудио 2: Английский/Оригинальная дорожка , AAC / 2.0 / 160 Kbps / 48.0 KHz
Аудио 3: Русский/Дублированный (iTunes), AC-3 / 5.1 / 384 Kbps / 48.0 KHz
Аудио 4: Английский/Оригинальная дорожка , AC-3 / 5.1 / 384 Kbps / 48.0 KHz
Аудио 5: Казахский/Дублированный (iTunes), AAC 2.0 @ 160 kbps
Аудио 6: Русский/(Тифлокомментарии iTunes), AAC 2.0 @ 160 kbps
Субтитры 1: Русские форсированные
Субтитры 2: Английские форсированные
Субтитры 3: Русские полные
Субтитры 4: Русские SDH
Субтитры 5: Английские полные
-

iTunes Meta Tags

Sort Name: Incredibles 2
XID: Apple:vendor_id:2018-839650
contentID: 1392900449
Copyright: © 2018 Disney/Pixar
Screenwriters: Брэд Бёрд
Producers: Николь Паради Гриндл, Джон Лассетер, Джон Уокер
Director: Брэд Бёрд
Cast: Крэйг Т. Нельсон, Холли Хантер, Сара Вауэлл, Хак Милнер, Кэтрин Кинер, Илай Фучиле, Боб Оденкёрк, Сэмюэл Л. Джексон, Майкл Бёрд, София Буш
Studio: Pixar
Rating: 3
Long Description: После событий первой части суперсемейка пользуется повышенным вниманием со стороны журналистов. Неожиданно оказалось, что обаятельная Миссис Исключительная гораздо лучше смотрится на экране телевизора, чем её муж. Мистеру Исключительному все чаще приходится сидеть дома и приглядывать за детьми, у каждого из которых есть свои причины быть недовольным собственными суперспособностями. Однако семейным проблемам предстоит отступить на второй план, когда окажется, что спокойствию Суперсемейки угрожает новый могущественный враг.
Description: После событий первой части суперсемейка пользуется повышенным вниманием со стороны журналистов. Неожиданно оказалось, что обаятельная Миссис Исключительная гораздо лучше смотрится на экране телевизора, чем её муж. Мистеру Исключительному все чаще приходится сидеть дома и приглядывать за детьми, у каждого из которых есть свои причины быть недовольным собственными суперспособностями.
Release Date: 2018-06-15T07:00:00Z
Genre: Kids & Family
Artist: Brad Bird
Name: Incredibles 2

MediaInfo

General
Complete name : /Users/imac/HandBrake/Incredibles.2.WEB-DL.720p..m4v
Format : MPEG-4
Codec ID : M4V
File size : 4.39 GiB
Duration : 1h 57mn
Overall bit rate mode : Variable
Overall bit rate : 5 337 Kbps
Movie name : Incredibles 2
Performer : Brad Bird
Director : Брэд Бёрд
Actor : Крэйг Т. Нельсон / Холли Хантер / Сара Вауэлл / Хак Милнер / Кэтрин Кинер / Илай Фучиле / Боб Оденкёрк / Сэмюэл Л. Джексон / Майкл Бёрд / София Буш
Screenplay by : Брэд Бёрд
Producer : Николь Паради Гриндл / Джон Лассетер / Джон Уокер
Production studio : Pixar
Genre : Kids & Family
ContentType : Short Film
Description : После событий первой части суперсемейка пользуется повышенным вниманием со стороны журналистов. Неожиданно оказалось, что обаятельная Миссис Исключительная гораздо лучше смотрится на экране телевизора, чем её муж. Мистеру Исключительному все чаще приходится сидеть дома и приглядывать за детьми, у каждого из которых есть свои причины быть недовольным собственными суперспособностями.
Recorded date : UTC 2018-06-15 07:00:00
Encoded date : UTC 2018-10-25 22:45:34
Tagged date : UTC 2018-10-25 22:48:59
Copyright : © 2018 Disney/Pixar
Cover : Yes
Rating : None
Title/Sort : Incredibles 2
LongDescription : После событий первой части суперсемейка пользуется повышенным вниманием со стороны журналистов. Неожиданно оказалось, что обаятельная Миссис Исключительная гораздо лучше смотрится на экране телевизора, чем её муж. Мистеру Исключительному все чаще приходится сидеть дома и приглядывать за детьми, у каждого из которых есть свои причины быть недовольным собственными суперспособностями. Однако семейным проблемам предстоит отступить на второй план, когда окажется, что спокойствию Суперсемейки угрожает новый могущественный враг.
HDVideo : Yes
AppleStoreCatalogID : 1392900449
Vendor : Apple:vendor_id:2018-839650
ContentRating : mpaa|PG|200|
Video #1
ID : 1
Format : AVC
Format/Info : Advanced Video Codec
Format profile : Main@L3.1
Format settings, CABAC : No
Format settings, ReFrames : 2 frames
Codec ID : avc1
Codec ID/Info : Advanced Video Coding
Duration : 1h 57mn
Bit rate : 3 990 Kbps
Width : 1 280 pixels
Height : 536 pixels
Display aspect ratio : 2.40:1
Frame rate mode : Variable
Frame rate : 23.976 fps
Minimum frame rate : 23.810 fps
Maximum frame rate : 24.390 fps
Color space : YUV
Chroma subsampling : 4:2:0
Bit depth : 8 bits
Scan type : Progressive
Bits/(Pixel*Frame) : 0.243
Stream size : 3.28 GiB (75%)
Title : Main Program
Language : English
Encoded date : UTC 2018-10-25 22:45:34
Tagged date : UTC 2018-10-25 22:47:48
Color range : Limited
Color primaries : BT.709
Transfer characteristics : BT.709
Matrix coefficients : BT.709
Video #2
ID : 14
Format : JPEG
Codec ID : jpeg
Duration : 1h 57mn
Bit rate mode : Variable
Bit rate : 1 335 bps
Width : 640 pixels
Height : 268 pixels
Display aspect ratio : 2.40:1
Frame rate mode : Variable
Frame rate : 0.005 fps
Minimum frame rate : 0.002 fps
Maximum frame rate : 0.023 fps
Color space : YUV
Chroma subsampling : 4:2:0
Bit depth : 8 bits
Compression mode : Lossy
Bits/(Pixel*Frame) : 1.557
Stream size : 1.15 MiB (0%)
Title : Chapter Images
Language : English
Encoded date : UTC 2018-10-25 22:47:55
Tagged date : UTC 2018-10-25 22:47:56
Audio #1
ID : 2
Format : AAC
Format/Info : Advanced Audio Codec
Format profile : LC
Codec ID : 40
Duration : 1h 57mn
Source duration : 1h 57mn
Bit rate mode : Variable
Bit rate : 157 Kbps
Maximum bit rate : 241 Kbps
Channel(s) : 2 channels
Channel positions : Front: L R
Sampling rate : 48.0 KHz
Compression mode : Lossy
Stream size : 132 MiB (3%)
Source stream size : 132 MiB (3%)
Title : Russian Stereo
Language : Russian
Encoded date : UTC 2018-10-25 22:45:34
Tagged date : UTC 2018-10-25 22:45:56
Audio #2
ID : 3
Format : AAC
Format/Info : Advanced Audio Codec
Format profile : LC
Codec ID : 40
Duration : 1h 57mn
Source duration : 1h 57mn
Bit rate mode : Variable
Bit rate : 157 Kbps
Maximum bit rate : 234 Kbps
Channel(s) : 2 channels
Channel positions : Front: L R
Sampling rate : 48.0 KHz
Compression mode : Lossy
Stream size : 132 MiB (3%)
Source stream size : 132 MiB (3%)
Title : English Stereo
Language : English
Encoded date : UTC 2018-10-25 22:45:34
Tagged date : UTC 2018-10-25 22:45:56
Audio #3
ID : 4
Format : AC-3
Format/Info : Audio Coding 3
Mode extension : CM (complete main)
Format settings, Endianness : Big
Codec ID : ac-3
Duration : 1h 57mn
Bit rate mode : Constant
Bit rate : 384 Kbps
Channel(s) : 6 channels
Channel positions : Front: L C R, Side: L R, LFE
Sampling rate : 48.0 KHz
Bit depth : 16 bits
Compression mode : Lossy
Stream size : 324 MiB (7%)
Title : Russian DD 5.1
Language : Russian
Encoded date : UTC 2018-10-25 22:45:34
Tagged date : UTC 2018-10-25 22:45:56
Audio #4
ID : 5
Format : AC-3
Format/Info : Audio Coding 3
Mode extension : CM (complete main)
Format settings, Endianness : Big
Codec ID : ac-3
Duration : 1h 57mn
Bit rate mode : Constant
Bit rate : 384 Kbps
Channel(s) : 6 channels
Channel positions : Front: L C R, Side: L R, LFE
Sampling rate : 48.0 KHz
Bit depth : 16 bits
Compression mode : Lossy
Stream size : 324 MiB (7%)
Title : English DD 5.1
Language : English
Encoded date : UTC 2018-10-25 22:45:34
Tagged date : UTC 2018-10-25 22:45:56
Audio #5
ID : 6
Format : AAC
Format/Info : Advanced Audio Codec
Format profile : LC
Codec ID : 40
Duration : 1h 57mn
Bit rate mode : Variable
Bit rate : 125 Kbps
Maximum bit rate : 202 Kbps
Channel(s) : 2 channels
Channel positions : Front: L R
Sampling rate : 44.1 KHz
Compression mode : Lossy
Stream size : 105 MiB (2%)
Title : Kazakh AAC 2.0 @ 160 kbps
Language : Kazakh
Encoded date : UTC 2018-10-25 22:45:34
Tagged date : UTC 2018-10-25 22:45:56
Audio #6
ID : 7
Format : AAC
Format/Info : Advanced Audio Codec
Format profile : LC
Codec ID : 40
Duration : 1h 57mn
Bit rate mode : Variable
Bit rate : 125 Kbps
Maximum bit rate : 210 Kbps
Channel(s) : 2 channels
Channel positions : Front: L R
Sampling rate : 44.1 KHz
Compression mode : Lossy
Stream size : 105 MiB (2%)
Title : Russian TyfloComments (iTunes)
Language : Russian
Encoded date : UTC 2018-10-25 22:45:34
Tagged date : UTC 2018-10-25 22:45:56
Text #1
ID : 8
Format : Timed Text
Muxing mode : sbtl
Codec ID : tx3g
Duration : 1h 56mn
Bit rate mode : Variable
Bit rate : 0 bps
Stream size : 170 Bytes (0%)
Title : Russian forced
Language : Russian
Encoded date : UTC 2018-10-25 22:45:34
Tagged date : UTC 2018-10-25 22:45:54
Text #2
ID : 9
Format : Timed Text
Muxing mode : sbtl
Codec ID : tx3g
Duration : 49mn 22s
Bit rate mode : Variable
Bit rate : 1 bps
Stream size : 195 Bytes (0%)
Title : English forced
Language : English
Encoded date : UTC 2018-10-25 22:45:34
Tagged date : UTC 2018-10-25 22:45:47
Text #3
ID : 10
Format : Timed Text
Muxing mode : sbtl
Codec ID : tx3g
Duration : 1h 56mn
Bit rate mode : Variable
Bit rate : 130 bps
Stream size : 111 KiB (0%)
Title : Russian full
Language : Russian
Encoded date : UTC 2018-10-25 22:45:34
Tagged date : UTC 2018-10-25 22:45:54
Text #4
ID : 11
Format : Timed Text
Muxing mode : sbtl
Codec ID : tx3g
Duration : 1h 55mn
Bit rate mode : Variable
Bit rate : 143 bps
Stream size : 122 KiB (0%)
Title : Russian SDH
Language : Russian
Encoded date : UTC 2018-10-25 22:45:34
Tagged date : UTC 2018-10-25 22:45:55
Text #5
ID : 12
Format : Timed Text
Muxing mode : sbtl
Codec ID : tx3g
Duration : 1h 47mn
Bit rate mode : Variable
Bit rate : 86 bps
Stream size : 67.8 KiB (0%)
Title : English full
Language : English
Encoded date : UTC 2018-10-25 22:45:34
Tagged date : UTC 2018-10-25 22:45:54
Menu #1
00:00:00.000 : Tony Interrogation
00:03:22.000 : Incredibles vs Underminer
00:08:52.000 : Chewed Out
00:09:35.999 : Family Dinner
00:13:38.000 : Poolside
00:15:44.000 : Deavor Meets Supers
00:21:19.000 : Pillow Talk
00:23:27.000 : New House
00:27:08.000 : Where's Mom?
00:28:59.000 : Runaway Train
00:35:11.000 : Raccoon Fight
00:39:06.999 : Helen Checks In
00:42:44.000 : Tony Forgets
00:43:41.000 : Air Rescue
00:47:35.000 : Breakfast Blowup
00:48:52.000 : Triumph Return
00:54:15.000 : Vi Embarrassed
00:56:16.000 : Tracking Screenslaver
01:00:58.000 : Screenslaver Caught
01:02:02.000 : Breaking Point
01:06:55.000 : E The Babysitter
01:09:18.000 : Helen Reviews Footage
01:11:28.000 : Bob's Apology
01:12:37.000 : Helen Slips Away
01:14:39.000 : Auntie E
01:18:00.000 : Cold Room
01:20:32.000 : House Attack
01:25:01.000 : Kids Alone
01:27:59.000 : Super Signing
01:31:54.000 : Kids To The Rescue
01:33:26.000 : Trap Is Sprung
01:36:23.999 : Battle Royale
01:37:45.000 : Save The Day
01:43:57.000 : Resolution
01:45:36.000 : Epilogue
01:47:30.000 : End Credits
Menu #2
ID : 13
Codec ID : text
Duration : 1h 57mn
Language : English
Encoded date : UTC 2018-10-25 22:47:48
Tagged date : UTC 2018-10-25 22:47:48
00:00:00.000 : Tony Interrogation
00:03:22.000 : Incredibles vs Underminer
00:08:52.000 : Chewed Out
00:09:35.999 : Family Dinner
00:13:38.000 : Poolside
00:15:44.000 : Deavor Meets Supers
00:21:19.000 : Pillow Talk
00:23:27.000 : New House
00:27:08.000 : Where's Mom?
00:28:59.000 : Runaway Train
00:35:11.000 : Raccoon Fight
00:39:06.999 : Helen Checks In
00:42:44.000 : Tony Forgets
00:43:41.000 : Air Rescue
00:47:35.000 : Breakfast Blowup
00:48:52.000 : Triumph Return
00:54:15.000 : Vi Embarrassed
00:56:16.000 : Tracking Screenslaver
01:00:58.000 : Screenslaver Caught
01:02:02.000 : Breaking Point
01:06:55.000 : E The Babysitter
01:09:18.000 : Helen Reviews Footage
01:11:28.000 : Bob's Apology
01:12:37.000 : Helen Slips Away
01:14:39.000 : Auntie E
01:18:00.000 : Cold Room
01:20:32.000 : House Attack
01:25:01.000 : Kids Alone
01:27:59.000 : Super Signing
01:31:54.000 : Kids To The Rescue
01:33:26.000 : Trap Is Sprung
01:36:23.999 : Battle Royale
01:37:45.000 : Save The Day
01:43:57.000 : Resolution
01:45:36.000 : Epilogue
01:47:30.000 : End Credits
Bit rate mode : VBR

Скриншоты

-

Релиз подготовлен для просмотра на Apple TV, iPad, iPhone, iPod Touch.
Для просмотра данного релиза на компьютере с ОС Windows рекомендуется использовать VLC media player
Вы не можете начинать темы
Вы не можете отвечать на сообщения
Вы не можете редактировать свои сообщения
Вы не можете удалять свои сообщения
Вы не можете голосовать в опросах
Вы не можете прикреплять файлы к сообщениям
Вы можете скачивать файлы
!ВНИМАНИЕ!

Сайт не предоставляет электронные версии произведений, а занимается лишь коллекционированием и каталогизацией ссылок, присылаемых и публикуемых на форуме нашими читателями. Если вы являетесь правообладателем какого-либо представленного материала и не желаете, чтобы ссылка на него находилась в нашем каталоге, свяжитесь с нами, и мы незамедлительно удалим ее. Файлы для обмена на трекере предоставлены пользователями сайта, и администрация не несет ответственности за их содержание. Просьба не заливать файлы, защищенные авторскими правами, а также файлы нелегального содержания!

Искали программы, игры, дополнения, музыка mp3, аниме, аудио книги, журналы? Добро пожаловать на свободный торрент трекер Torrents, у нас можно скачать бесплатно, без смс и регистрации и прочих ограничений лучшие, отборные сборки программ, игр. Скачать торрентом не составит труда даже не опытному пользователю. Раздачи ежедневно обновляются, только лучшие и качественные раздачи, подробные описания и скриншоты. Огромная коллекция программ для работы со звуком, графикой, дизайном, а так же множество плагинов и инструментов к ним с подробной инструкцией и рекомендациями. Прошивки для навигаторов, карты. Разнообразные игры, для Windows, Linux. В коллекцие есть и старые игры любых жанров, Rpg, Action, Shooter, strategy Множество дополнений, модификаций, сценариев для популярных игр в жанре экш, рпг, гонки, стратегии, логические игры. Множество аддонов и сценариев для Microsoft Flight Simulator Большая коллекция книг, учебников. Если нет возможности купить печатное издание - смело скачивайте цифровую версию книги или, быть может, журнала. Не любите читать - можно загрузить бесплатно аудикнигу. Для веб дизайнеров и программистов так же найдется множество специализированного софта, таких как: редакторы с подсветкой, среды программирования, компоненты, системы управления базами данных, разнообразные скрипты и шаблоны. Не так давно у нас появился материал для автолюбителей и владельцев мото - оригинальные и неоригинальные каталоги запчастей, книги и журналы по ремонту и обслуживанию, видеоуроки, статьи по чип тюнингу, прошивкам. Процедура получения контента элементарная, достаточно просто скачать торрент файл и добавить его в загрузку в вашем торрент клиенте. Если у вас нет специального торрент клиента, вы можете его скачать у нас.