(Prog/Psychedelic/Kraut/Post Rock/Zeuhl/Jazz Rock) [WEB] Onségen Ensemble (Onsegen Ensemble) - 2 Studio Albums Discography - 2016-2018, FLAC (tracks), lossless 

Цитировать
Onségen Ensemble


Discography
Жанр:
Prog/Psychedelic/Kraut/Post Rock/Zeuhl/Jazz Rock
Носитель: WEB
Год издания: 2016-2018
Страна исполнителя (группы): Finland
Аудиокодек: FLAC (*.flac)
Тип рипа: tracks
Битрейт аудио: lossless
Продолжительность: 01:25:16
Источник (релизер): Bandcamp
Наличие сканов в содержимом раздачи: нет

Рецензия на альбом "Duel"

2016 - Awalaï [42:28]


01. Juuvaara [00:06:05]
02. Kuuhanka [00:06:38]
03. HK7 [00:07:00]
04. Awalaï [00:08:44]
05. Solei [00:09:05]
06. HottoizzoH [00:04:53]
Состав:
Esa Juujarvi - Bass, Keyboards
Kimmo Nissinen - Guitar
Veijo Pulkkinen - Drums
Released January 4, 2016

Лог проверки качества

-----------------------
DON'T MODIFY THIS FILE
-----------------------
PERFORMER: auCDtect Task Manager, ver. 1.6.0 RC1 build 1.6.0.1Copyright (c) 2008-2010 y-soft. All rights reservedhttp://y-soft.org
ANALYZER: auCDtect: CD records authenticity detector, version 0.8.2Copyright (c) 2004 Oleg Berngardt. All rights reserved.Copyright (c) 2004 Alexander Djourik. All rights reserved.
FILE: 06. HottoizzoH.flac Size: 34914489 Hash: 7F91868DA5BD6840471143CD004B2906 Accuracy: -m0 Conclusion: CDDA 100% Signature: 1A37B1D4DAFAF59680648CCBF14DD96AEFC2FB1BFILE: 05. Solei.flac Size: 60028022 Hash: DAA9256A16A3646DE807334994FE49A2 Accuracy: -m0 Conclusion: CDDA 100% Signature: 79A9E0889FB51981B85D59FFD9D0200C5ECC841DFILE: 04. Awalaï.flac Size: 57568666 Hash: 4921BF4C7AF35C822788059E9D4F615F Accuracy: -m0 Conclusion: CDDA 100% Signature: FE3371CA2CCFA41FBED0669EE7AB7AEA9D0A64A0FILE: 03. HK7.flac Size: 47005643 Hash: 1005C117DF80A86E263B359649ADFE94 Accuracy: -m0 Conclusion: CDDA 100% Signature: 7F6019A96C6FF7C9D1F05CDA21AB023D7E758F95FILE: 02. Kuuhanka.flac Size: 45050682 Hash: D0C58B1E3A6C4A3CBB0B0D24412EBC2C Accuracy: -m0 Conclusion: CDDA 100% Signature: C614D18C9DCE0A70022C5D3FAB3A36D7E684CD6CFILE: 01. Juuvaara.flac Size: 38481243 Hash: C91B0F099DDFBE657846604A8B15A3FD Accuracy: -m0 Conclusion: CDDA 100% Signature: 66479CCB5FB6723EBD3A358AE3815E2DC04D3B66

DRM log

foobar2000 1.3.12 / Dynamic Range Meter 1.1.1log date: 2018-10-27 08:18:45
--------------------------------------------------------------------------------Analyzed: Onségen Ensemble / Awalaï--------------------------------------------------------------------------------
DR Peak RMS Duration Track--------------------------------------------------------------------------------DR8 -0.13 dB -9.64 dB 6:06 01-JuuvaaraDR7 -0.07 dB -9.02 dB 6:38 02-KuuhankaDR8 -0.09 dB -9.50 dB 7:00 03-HK7DR8 -0.12 dB -10.55 dB 8:45 04-AwalaïDR8 -0.13 dB -10.33 dB 9:06 05-SoleiDR7 -0.12 dB -8.22 dB 4:53 06-HottoizzoH--------------------------------------------------------------------------------
Number of tracks: 6Official DR value: DR8
Samplerate: 44100 HzChannels: 2Bits per sample: 16Bitrate: 950 kbpsCodec: FLAC================================================================================

2018 - Duel [42:48]


01. Think Neither Good Nor Evil [00:08:09]
02. Duel [00:05:16]
03. Dogma MMXVIII [00:07:53]
04. Three Calls of the Emperor's Teacher [00:11:54]
05. Zodiacal Lights of Onségen [00:09:35]
Состав:
Esa Juujarvi - Bass, Keyboards
Joni Mäkelä, Mikko Vuorela - Guitar
Sami Lehtiniemi, Samuli Lindberg - Drums
Jaakko Tuomivaara - Keyboards
Heikki Häkkilä - Trumpet
Juggis Aalto - ?
Merja Järvelin - ?
Niina Vahtola - ?

Лог проверки качества

-----------------------
DON'T MODIFY THIS FILE
-----------------------
PERFORMER: auCDtect Task Manager, ver. 1.6.0 RC1 build 1.6.0.1Copyright (c) 2008-2010 y-soft. All rights reservedhttp://y-soft.org
ANALYZER: auCDtect: CD records authenticity detector, version 0.8.2Copyright (c) 2004 Oleg Berngardt. All rights reserved.Copyright (c) 2004 Alexander Djourik. All rights reserved.
FILE: Onségen Ensemble - Duel - 05 Zodiacal Lights of Onségen.flac Size: 61131074 Hash: 44F4A5427D4E416032A74DE0EB5E248C Accuracy: -m0 Conclusion: CDDA 100% Signature: 129CE87187E0C68384AC3EBA2107A20459928583FILE: Onségen Ensemble - Duel - 04 Three Calls of the Emperor's Teacher.flac Size: 79080095 Hash: CCC6731DFC60B1E0DA873A281B381B2A Accuracy: -m0 Conclusion: CDDA 100% Signature: A15F04D0E2357380ED98431C57F9F036C4ECB53EFILE: Onségen Ensemble - Duel - 03 Dogma MMXVIII.flac Size: 55025060 Hash: 3BE050D7976BB1BDEB84CE3D8EE3A4A7 Accuracy: -m0 Conclusion: CDDA 100% Signature: 18673B2E706230570603E0A2799DADF5970504E7FILE: Onségen Ensemble - Duel - 02 Duel.flac Size: 34083511 Hash: 7AE04EFEA06FEC4C9FAD491354C4EBC4 Accuracy: -m0 Conclusion: CDDA 87% Signature: 9B81DA771920C990EA94D819B84157C72464DC6FFILE: Onségen Ensemble - Duel - 01 Think Neither Good Nor Evil.flac Size: 56541246 Hash: 14C71CAFC8DB3C4F796A314513197DFD Accuracy: -m0 Conclusion: CDDA 100% Signature: 3AB7AE0511F48CE984E28DAED60A3333AA86EE65

DRM log

foobar2000 1.3.12 / Dynamic Range Meter 1.1.1log date: 2018-10-27 08:09:37
--------------------------------------------------------------------------------Analyzed: Onségen Ensemble / Duel--------------------------------------------------------------------------------
DR Peak RMS Duration Track--------------------------------------------------------------------------------DR6 -0.26 dB -8.38 dB 8:09 01-Think Neither Good Nor EvilDR7 0.00 dB -10.23 dB 5:16 02-DuelDR7 0.00 dB -8.91 dB 7:53 03-Dogma MMXVIIIDR8 0.00 dB -9.90 dB 11:54 04-Three Calls of the Emperor's TeacherDR8 0.00 dB -10.99 dB 9:35 05-Zodiacal Lights of Onségen--------------------------------------------------------------------------------
Number of tracks: 5Official DR value: DR7
Samplerate: 44100 HzChannels: 2Bits per sample: 16Bitrate: 847 kbpsCodec: FLAC================================================================================
Вы не можете начинать темы
Вы не можете отвечать на сообщения
Вы не можете редактировать свои сообщения
Вы не можете удалять свои сообщения
Вы не можете голосовать в опросах
Вы не можете прикреплять файлы к сообщениям
Вы можете скачивать файлы
!ВНИМАНИЕ!

Сайт не предоставляет электронные версии произведений, а занимается лишь коллекционированием и каталогизацией ссылок, присылаемых и публикуемых на форуме нашими читателями. Если вы являетесь правообладателем какого-либо представленного материала и не желаете, чтобы ссылка на него находилась в нашем каталоге, свяжитесь с нами, и мы незамедлительно удалим ее. Файлы для обмена на трекере предоставлены пользователями сайта, и администрация не несет ответственности за их содержание. Просьба не заливать файлы, защищенные авторскими правами, а также файлы нелегального содержания!

Искали программы, игры, дополнения, музыка mp3, аниме, аудио книги, журналы? Добро пожаловать на свободный торрент трекер Torrents, у нас можно скачать бесплатно, без смс и регистрации и прочих ограничений лучшие, отборные сборки программ, игр. Скачать торрентом не составит труда даже не опытному пользователю. Раздачи ежедневно обновляются, только лучшие и качественные раздачи, подробные описания и скриншоты. Огромная коллекция программ для работы со звуком, графикой, дизайном, а так же множество плагинов и инструментов к ним с подробной инструкцией и рекомендациями. Прошивки для навигаторов, карты. Разнообразные игры, для Windows, Linux. В коллекцие есть и старые игры любых жанров, Rpg, Action, Shooter, strategy Множество дополнений, модификаций, сценариев для популярных игр в жанре экш, рпг, гонки, стратегии, логические игры. Множество аддонов и сценариев для Microsoft Flight Simulator Большая коллекция книг, учебников. Если нет возможности купить печатное издание - смело скачивайте цифровую версию книги или, быть может, журнала. Не любите читать - можно загрузить бесплатно аудикнигу. Для веб дизайнеров и программистов так же найдется множество специализированного софта, таких как: редакторы с подсветкой, среды программирования, компоненты, системы управления базами данных, разнообразные скрипты и шаблоны. Не так давно у нас появился материал для автолюбителей и владельцев мото - оригинальные и неоригинальные каталоги запчастей, книги и журналы по ремонту и обслуживанию, видеоуроки, статьи по чип тюнингу, прошивкам. Процедура получения контента элементарная, достаточно просто скачать торрент файл и добавить его в загрузку в вашем торрент клиенте. Если у вас нет специального торрент клиента, вы можете его скачать у нас.