Остаться в живых - Обзорные серии / Lost - Recaps (J.J.Abrams et al.) [2005-2010, США, фантастика, мистика, приключения, драма, HDTVRip] rus+eng sub 

Цитировать
Остаться в живых - Обзорные серии / Lost - Recaps
Страна: США
Год выпуска: 2005-2010
Жанр: фантастика, мистика, приключения, драма
Режиссер: J.J.Abrams et al.
В ролях: Adewale Akinnuoye-Agbaje (Mr. Eko), Sam Anderson (Bernard Nadler), Naveen Andrews (Sayid Jarrah), L. Scott Caldwell (Rose Nadler), Nestor Carbonell (Richard Alpert), François Chau (Pierre Chang), Henry Ian Cusick (Desmond Hume), Jeremy Davies (Daniel Faraday), Emilie de Ravin (Claire Littleton), Michael Emerson (Benjamin Linus), Jeff Fahey (Frank Lapidus), Fionnula Flanagan (Eloise Hawking), Matthew Fox (Jack Shephard), Jorge Garcia (Hugo "Hurley" Reyes), Maggie Grace (Shannon Rutherford), Josh Holloway (James "Sawyer" Ford), Malcolm David Kelley (Walt Lloyd), Daniel Dae Kim (Jin-Soo Kwon), Yunjin Kim (Sun-Hwa Kwon), Ken Leung (Miles Straume), Evangeline Lilly (Kate Austen), Rebecca Mader (Charlotte Lewis), Elizabeth Mitchell (Juliet Burke), Dominic Monaghan (Charlie Pace), Mark Pellegrino (Jacob), Harold Perrineau (Michael Dawson), Terry O'Quinn (John Locke), Zuleikha Robinson (Ilana Verdansky), Michelle Rodriguez (Ana Lucia Cortez), Kiele Sanchez (Nikki Fernandez), Rodrigo Santoro (Paulo), Ian Somerhalder (Boone Carlyle), John Terry (Christian Shephard), Sonya Walger (Penelope Widmore-Hume), Cynthia Watros (Libby Smith), Titus Welliver (The Man in Black).
Описание: В этой раздаче представлены все так называемые clip show (известны также, как recap, special) телесериала "Lost" - дополнительные серии обзорного характера, выходившие в американский телеэфир, как правило, перед началом очередного сезона и/или после значительного перерыва в показе сериала и представляющие собой краткий рассказ-нарезку о том, что было показано в предыдущих сериях.
По замыслу канала ABC, clip show предназначались специально для "привлечения новых зрителей - но так, чтобы и те, кто уже смотрят сериал, тоже нашли для себя что-то интересное".
В раздаче собраны только официальные - от создателей сериала и канала ABC - полнометражные clip show в количестве 13 выпусков. Продолжительность каждого выпуска - около 42 минут, за исключением последнего - "Lost: The Final Journey", который в два раза длиннее. Всяческие 20-минутки с Джимми Киммелом, анонсы типа "Lost Moments" и тому подобные ролики короткого формата в раздачу не включены.

Доп. информация

Собирая эту раздачу - фанатскую по духу, - я придерживался следующих принципов, которые, на мой взгляд, должны разделять все истинные фанаты Lost.
1. Все обзоры должны в первую очередь быть доступны для просмотра на языке оригинала. Поэтому дорожки с русской озвучкой (если она есть) идут в качестве бонусных материалов.
2. Обязательно наличие английских субтитров. К сожалению, на 100% реализовать этот принцип не удалось. В выпуске "Lost Survivor Guide" английские субтитры отсутствуют. По-видимому, их вообще не существует в природе - во всяком случае, я не нашёл, хотя искал долго и тщательно. К остальным выпускам английские субтитры имеются в виде отдельных файлов.
3. Перевод - не помеха, а помощь. Следовательно, основной способ перевода - опять-таки субтитры. Русские субтитры присутствуют ко всем выпускам и раздаются в виде отдельных файлов: хотим - подключаем, не хотим - смотрим так. Все субтитры ко всем выпускам мной отсмотрены и как минимум отредактированы в целях большего соответствия смыслу произносимого с экрана, а как максимум и вовсе представляют собой мой собственный перевод.
4. Следующий принцип - единообразие картинки. Основное содержание раздачи - стандартные avi-файлы качества HDTVrip размером примерно 350М и разрешением примерно 624х352. Для большинства выпусков более высокого качества и не существует. Для любителей смотреть картинки более высокого качества даю ссылки на всё, что я нашёл на трекере.
Содержание раздачи

01. Lost: The Journey. Air date: 27.04.2005

Остаться в живых: Путешествие / Lost: The Journey
Продолжительность: 0:42:41
Перевод: субтитры
Субтитры: русские, английские
Описание: "Lost: The Journey" - это клип-шоу, вышедшее в эфир 27 апреля 2005 года, через три недели после показа эпизода 1x20 "Do No Harm" / "Не навреди" и за неделю до показа четырёх завершающих эпизодов первого сезона, начинающихся с эпизода 1x21 "The Greater Good" / "Лучшая участь".
Это первая обзорная серия, созданная для сериала Lost. Она представляет собой попытку показать основные события Первого сезона в линейной последовательности. Показано то, что произошло в самолёте перед катастрофой, основные события на Острове - без флэшбэков - и превью финала сезона.
Текст от автора в этом обзоре читает актёр, педагог и писатель Brian Cox / Брайан Кокс.
Повтор шоу состоялся в США 21 мая 2005 года, между первой и второй частями серии "Exodus" / "Исход".
Доп. информация: Английские субтитры взяты на ресурсе allsubs.org (в некоторых местах поправлены мной со слуха), русские - мой их перевод.
Формат: AVI
Видео кодек: XviD
Аудио кодек: MP3
Видео: MPEG-4 Visual (XviD), 512*384 (4:3), 23,976 fps, 1001 kbps
Аудио: MPEG Audio (MP3), 48 kHz, 2 ch, 128 kbps

MI

Общее
Полное имя : F:\MyTorrents\Lost - Recaps\01 - Lost The Journey\Lost.The.Journey.2005.avi
Формат : AVI
Формат/Информация : Audio Video Interleave
Размер файла : 350 Мбайт
Продолжительность : 42 м.
Режим общего битрейта : Переменный
Общий поток : 1145 Кбит/сек
Программа кодирования : Nandub v1.0rc2
Видео
Идентификатор : 0
Формат : MPEG-4 Visual
Профиль формата : Simple@L3
Параметр BVOP формата : 2
Параметр QPel формата : Нет
Параметр GMC формата : Без точки перехода
Параметр матрицы формата : Default (H.263)
Режим смешивания : Сжатый битовый поток
Идентификатор кодека : XVID
Идентификатор кодека/Подсказка : XviD
Продолжительность : 42 м.
Битрейт : 1001 Кбит/сек
Ширина : 512 пикселей
Высота : 384 пикселя
Соотношение сторон : 4:3
Частота кадров : 23,976 кадра/сек
Цветовое пространство : YUV
Субдискретизация насыщенности : 4:2:0
Битовая глубина : 8 бит
Тип развёртки : Прогрессивная
Метод сжатия : С потерями
Бит/(Пиксели*Кадры) : 0.212
Размер потока : 306 Мбайт (87%)
Библиотека кодирования : XviD 1.0.3 (UTC 2004-12-20)
Аудио
Идентификатор : 1
Формат : MPEG Audio
Версия формата : Version 1
Профиль формата : Layer 3
Режим : Joint stereo
Расширение режима : MS Stereo
Идентификатор кодека : 55
Идентификатор кодека/Подсказка : MP3
Продолжительность : 42 м.
Вид битрейта : Переменный
Битрейт : 128 Кбит/сек
Каналы : 2 канала
Частота : 48,0 КГц
Метод сжатия : С потерями
Размер потока : 40,0 Мбайт (11%)
Выравнивание : Соединение по промежуткам
Продолжительность промежутка : 24 мс. (0,58 видеокадр)
Библиотека кодирования : LAME3.95
Настройки программы : -m j -V 4 -q 3 -lowpass 17.5 --abr 128

Скриншоты

02. Destination Lost. Air date: 21.09.2005

Предназначение - Остаться в живых / Destination Lost
Продолжительность: 0:39:10
Перевод: Субтитры
Субтитры: русские, английские
Описание: "Destination Lost" - это клип-шоу, которое вышло в американский телеэфир перед премьерой второго сезона сериала "Lost" 21 сентября 2005 года.
Показывая в линейной последовательности самые кульминационные фрагменты эпизодов первого сезона, "Destination Lost" фокусируется на флэшбэках центральных персонажей (Джек, Сойер, Локк, Майкл), бросает заинтересованный взгляд на то, что происходило с некоторыми из выживших до злополучного рейса Oceanic 815, показывает, кем они были и что делали перед катастрофой и как остров изменил их жизнь, к лучшему или к худшему. Кроме того, показан сам Остров — отобраны такие события, которые могут раскрыть некоторые его тайны и которым зритель мог не уделить должного внимания во время первого просмотра.
Текст от автора в этом обзоре читает киноактёр Peter Coyote / Питер Койот.
Доп. информация: Английские субтитры взяты на ресурсе allsubs.org, русские - мой их перевод.
Качество: HDTVRip
Формат видео: AVI
Видео кодек: XviD
Аудио кодек: MP3
Видео: MPEG-4 Visual (XviD), 624*352 (16:9), 23,976 fps, 1106 kbps
Аудио: MPEG Audio (MP3), 48 kHz, 2 ch, 128 kbps

MI

Общее
Полное имя : F:\MyTorrents\Lost - Recaps\02 - Destination Lost\Destination.Lost.2005.avi
Формат : AVI
Формат/Информация : Audio Video Interleave
Размер файла : 349 Мбайт
Продолжительность : 39 м.
Режим общего битрейта : Переменный
Общий поток : 1246 Кбит/сек
Программа кодирования : VirtualDub
Видео
Идентификатор : 0
Формат : MPEG-4 Visual
Профиль формата : Simple@L3
Параметр BVOP формата : 2
Параметр QPel формата : Нет
Параметр GMC формата : Без точки перехода
Параметр матрицы формата : Default (H.263)
Режим смешивания : Сжатый битовый поток
Идентификатор кодека : XVID
Идентификатор кодека/Подсказка : XviD
Продолжительность : 39 м.
Битрейт : 1106 Кбит/сек
Ширина : 624 пикселя
Высота : 352 пикселя
Соотношение сторон : 16:9
Частота кадров : 23,976 кадра/сек
Цветовое пространство : YUV
Субдискретизация насыщенности : 4:2:0
Битовая глубина : 8 бит
Тип развёртки : Прогрессивная
Метод сжатия : С потерями
Бит/(Пиксели*Кадры) : 0.210
Размер потока : 310 Мбайт (89%)
Библиотека кодирования : XviD 1.1.0 Beta1 (UTC 2005-01-16)
Аудио
Идентификатор : 1
Формат : MPEG Audio
Версия формата : Version 1
Профиль формата : Layer 3
Режим : Joint stereo
Расширение режима : MS Stereo
Идентификатор кодека : 55
Идентификатор кодека/Подсказка : MP3
Продолжительность : 39 м.
Вид битрейта : Переменный
Битрейт : 128 Кбит/сек
Каналы : 2 канала
Частота : 48,0 КГц
Метод сжатия : С потерями
Размер потока : 35,8 Мбайт (10%)
Выравнивание : Соединение по промежуткам
Продолжительность промежутка : 24 мс. (0,58 видеокадр)
Время предзагрузки промежутка : 138 мс.
Библиотека кодирования : LAME3.90.
Настройки программы : -m j -V 4 -q 2 -lowpass 17.6 --abr 128

Скриншоты

03. Lost: Revelation. Air date: 11.01.2006

Остаться в живых: Откровение / Lost: Revelation
Продолжительность: 0:42:26
Перевод: Субтитры
Субтитры: русские, английские
Описание: "Lost: Revelation" - это клип-шоу, которое вышло в американский телеэфир в середине второго сезона сериала "Lost" 11 января 2006 года, в новом году, после 6-недельного перерыва, последовавшего после показа эпизода 2х09 "What Kate Did" / "Что сделала Кейт", и демонстрировалось в течение часа перед эпизодом 2х10 "The 23rd Psalm" / "23-й псалом".
С самого начала "Lost" заинтересовал и заинтриговал зрителей неординарными персонажами и уникальным стилем повествования. Первый сезон был посвящён выжившим из основной части самолёта, таинственному люку и неудавшейся попытке уплыть с Острова на плоту. Второй сезон продолжает эти сюжеты, а также представляет зрителям выживших из хвостовой части. "Lost: Revelation" сводит события обоих сезонов в линейной последовательности, показывающей их в общем повествовании. Смотрите подряд то, что последовало за неудачей с плотом, открытием люка, как выжившие из хвостовой и основной частей самолёта жили раздельно, как их жизни нежданно переплелись и как обе группы в конце концов трагически столкнулись.
Текст от автора в этой обзорной серии, как и в предыдущей, читает киноактёр Peter Coyote / Питер Койот.
Доп. информация: Английские субтитры взяты на ресурсе allsubs.org, русские - мой их перевод.
Качество: HDTVRip
Формат видео: AVI
Видео кодек: XviD
Аудио кодек: MP3
Видео: MPEG-4 Visual (XviD), 624*352 (16:9), 23,976 fps, 1016 kbps
Аудио: MPEG Audio (MP3), 48 kHz, 2 ch, 128 kbps

MI

Общее
Полное имя : F:\MyTorrents\Lost - Recaps\03 - Lost Revelation\Lost.Revelation.2006.avi
Формат : AVI
Формат/Информация : Audio Video Interleave
Размер файла : 350 Мбайт
Продолжительность : 42 м.
Режим общего битрейта : Переменный
Общий поток : 1152 Кбит/сек
Программа кодирования : VirtualDub
Видео
Идентификатор : 0
Формат : MPEG-4 Visual
Профиль формата : Simple@L3
Параметр BVOP формата : 2
Параметр QPel формата : Нет
Параметр GMC формата : Без точки перехода
Параметр матрицы формата : Default (H.263)
Режим смешивания : Сжатый битовый поток
Идентификатор кодека : XVID
Идентификатор кодека/Подсказка : XviD
Продолжительность : 42 м.
Битрейт : 1016 Кбит/сек
Ширина : 624 пикселя
Высота : 352 пикселя
Соотношение сторон : 16:9
Частота кадров : 23,976 кадра/сек
Цветовое пространство : YUV
Субдискретизация насыщенности : 4:2:0
Битовая глубина : 8 бит
Тип развёртки : Прогрессивная
Метод сжатия : С потерями
Бит/(Пиксели*Кадры) : 0.193
Размер потока : 308 Мбайт (88%)
Библиотека кодирования : XviD 1.1.0 Beta1 (UTC 2005-01-16)
Аудио
Идентификатор : 1
Формат : MPEG Audio
Версия формата : Version 1
Профиль формата : Layer 3
Режим : Joint stereo
Расширение режима : MS Stereo
Идентификатор кодека : 55
Идентификатор кодека/Подсказка : MP3
Продолжительность : 42 м.
Вид битрейта : Переменный
Битрейт : 120 Кбит/сек
Каналы : 2 канала
Частота : 48,0 КГц
Метод сжатия : С потерями
Размер потока : 37,3 Мбайт (11%)
Выравнивание : Соединение по промежуткам
Продолжительность промежутка : 24 мс. (0,58 видеокадр)
Время предзагрузки промежутка : 405 мс.
Библиотека кодирования : LAME3.96
Настройки программы : -m j -V 4 -q 3 -lowpass 17.5 --abr 120

Скриншоты

04. Lost: Reckoning. Air date: 26.04.2006

Остаться в живых: Расчёты / Lost: Reckoning
Продолжительность: 0:42:18
Перевод: Субтитры
Субтитры: русские, английские
Описание: "Lost: Reckoning" - это клип-шоу, демонстрировавшееся в американском телеэфире 26 апреля 2006 года в ходе обычного для сериала "Lost" перерыва между эпизодами: клип-шоу было показано через две недели после эпизода 2x19 "S.O.S." и за неделю до эпизода 2x20 "Two for the Road" / "Двое на дороге".
С момента катастрофы рейса Ошеаник 815 выжившие и оказавшиеся на Острове пассажиры проходят испытание веры. Это касается выживших как из центральной, так и из хвостовой частей самолёта.
Являетесь ли вы человеком веры или человеком науки? Эта дилемма терзает выживших островитян, но и раскрывает их характеры.
Текст от автора в этой обзорной серии, как и в двух предыдущих, читает киноактёр Peter Coyote / Питер Койот.
Доп. информация: Английские субтитры взяты на ресурсе allsubs.org, русские - мой их перевод.
Качество: HDTVRip
Формат видео: AVI
Видео кодек: XviD
Аудио кодек: MP3
Видео: MPEG-4 Visual (XviD), 608*336 (16:9), 23,976 fps, 1015 kbps
Аудио: MPEG Audio (MP3), 48 kHz, 2 ch, 128 kbps

MI

Общее
Полное имя : F:\MyTorrents\Lost - Recaps\04 - Lost Reckoning\Lost.Reckoning.2006.avi
Формат : AVI
Формат/Информация : Audio Video Interleave
Размер файла : 348 Мбайт
Продолжительность : 42 м.
Режим общего битрейта : Переменный
Общий поток : 1150 Кбит/сек
Программа кодирования : cant touch this
Видео
Идентификатор : 0
Формат : MPEG-4 Visual
Профиль формата : Advanced Simple@L5
Параметр BVOP формата : 2
Параметр QPel формата : Нет
Параметр GMC формата : Без точки перехода
Параметр матрицы формата : Default (H.263)
Идентификатор кодека : XVID
Идентификатор кодека/Подсказка : XviD
Продолжительность : 42 м.
Битрейт : 1015 Кбит/сек
Ширина : 608 пикселей
Высота : 336 пикселей
Соотношение сторон : 16:9
Частота кадров : 23,976 кадра/сек
Цветовое пространство : YUV
Субдискретизация насыщенности : 4:2:0
Битовая глубина : 8 бит
Тип развёртки : Прогрессивная
Метод сжатия : С потерями
Бит/(Пиксели*Кадры) : 0.207
Размер потока : 307 Мбайт (88%)
Библиотека кодирования : XviD 1.2.0SMP (UTC 2006-01-08)
Аудио
Идентификатор : 1
Формат : MPEG Audio
Версия формата : Version 1
Профиль формата : Layer 3
Режим : Joint stereo
Расширение режима : MS Stereo
Идентификатор кодека : 55
Идентификатор кодека/Подсказка : MP3
Продолжительность : 42 м.
Вид битрейта : Переменный
Битрейт : 128 Кбит/сек
Каналы : 2 канала
Частота : 48,0 КГц
Метод сжатия : С потерями
Размер потока : 36,9 Мбайт (11%)
Выравнивание : Соединение по промежуткам
Продолжительность промежутка : 24 мс. (0,58 видеокадр)
Библиотека кодирования : LAME3.98a
Настройки программы : -m j -V 4 -q 3 -lowpass 17 --abr 128

Скриншоты

05. Lost: A Tale of Survival. Air date: 27.09.2006

Остаться в живых: История выживания / Lost: A Tale of Survival
Продолжительность: 0:42:15
Перевод: Субтитры
Субтитры: русские, английские
Описание: "Lost: A Tale of Survival" - это клип-шоу, демонстрировавшееся в американском телеэфире 27 сентября 2006 года, за неделю до премьеры третьего сезона сериала "Lost" (эпизод 3х01 "A Tale of Two Cities" / "Повесть о двух городах").
Чувствуете себя пропавшими? Не терпится узнать, что случилось на Острове? Канал ABC предлагает лекарство от этой болезни, приглашая новых и постоянных зрителей сериала бросить ещё один взгляд на самое обсуждаемое телевизионное шоу.
После того как самолёт, следовавший рейсом Oceanic 815, развалился в воздухе и рухнул на тихоокеанский остров, выжившим потребовалось найти невиданные внутренние силы для выживания. В ходе борьбы за существование они обнаружили, что остров скрывает много тайн, такие как загадочный "дымный" монстр, белые медведи, странная француженка и ещё одна группа обитателей острова, известная как "Другие". Выжившие также нашли следы пребывания на острове тех, кто был здесь до них: корабль 19 века под названием "Чёрная Скала", руины древней статуи и бункеры, принадлежавшие Инициативе ДХАРМА - группе учёных-исследователей.
Первый Сезон рассказывал о выживших из основной части самолёта, о люке и о неудачной попытке уплыть с Острова. Второй Сезон продолжил эти линии, а также представил зрителям Десмонда - человека, ответственного за ввод чисел в компьютерную систему в люке, - выживших из хвостового отсека и Генри Гейла, неожиданно оказавшегося предводителем "Других". "Lost: A Tale of Survival" рассказывает о событиях двух сезонов в линейной последовательности, давая общий обзор всей истории. Смотрите события, последовавшие за катастрофой рейса 815, сорвавшейся попыткой покинуть остров на плоту, открытием люка, рассказ о том, как выжившие из центрального и хвостового отсеков жили порознь и как однажды их жизни нечаянно и трагически пересеклись, как был взорван люк, а Джек, Кейт и Сойер схвачены "Другими". Узнайте, как и почему некоторые из выживших расстались с жизнью и как их смерть повлияла на их товарищей по несчастью. Кроме того, исследуется и сам Остров - для показа отобраны события, которые могут раскрыть некоторые из его тайн.
Текст от автора в этой обзорной серии читает актёр, исполнитель роли Бена в сериале "Lost" Michael Emerson / Майкл Эмерсон.
Доп. информация:
1. Русские и английские субтитры взяты на ресурсе allsubs.org, слегка мной поправлены со слуха и по смыслу.
2. Отдельным файлом прилагается русская звуковая дорожка к данной серии - озвучка от lostfilm.tv.
Качество: HDTVRip
Формат видео: AVI
Видео кодек: XviD
Аудио кодек: MP3
Видео: MPEG-4 Visual (XviD), 608*336 (16:9), 23,976 fps, 1036 kbps
Аудио: MPEG Audio (MP3), 44,1 kHz, 2 ch, 103 kbps

MI

Общее
Полное имя : F:\MyTorrents\Lost - Recaps\05 - Lost A Tale of Survival\Lost.A.Tale.of.Survival.2006.avi
Формат : AVI
Формат/Информация : Audio Video Interleave
Размер файла : 349 Мбайт
Продолжительность : 42 м.
Режим общего битрейта : Переменный
Общий поток : 1156 Кбит/сек
Программа кодирования : VirtualDub
Видео
Идентификатор : 0
Формат : MPEG-4 Visual
Профиль формата : Simple@L3
Параметр BVOP формата : 2
Параметр QPel формата : Нет
Параметр GMC формата : Без точки перехода
Параметр матрицы формата : Default (H.263)
Режим смешивания : Сжатый битовый поток
Идентификатор кодека : XVID
Идентификатор кодека/Подсказка : XviD
Продолжительность : 42 м.
Битрейт : 1036 Кбит/сек
Ширина : 608 пикселей
Высота : 336 пикселей
Соотношение сторон : 16:9
Частота кадров : 23,976 кадра/сек
Цветовое пространство : YUV
Субдискретизация насыщенности : 4:2:0
Битовая глубина : 8 бит
Тип развёртки : Прогрессивная
Метод сжатия : С потерями
Бит/(Пиксели*Кадры) : 0.212
Размер потока : 313 Мбайт (90%)
Библиотека кодирования : XviD 1.1.0 Beta1 (UTC 2005-01-16)
Аудио
Идентификатор : 1
Формат : MPEG Audio
Версия формата : Version 1
Профиль формата : Layer 3
Режим : Joint stereo
Расширение режима : MS Stereo
Идентификатор кодека : 55
Идентификатор кодека/Подсказка : MP3
Продолжительность : 42 м.
Вид битрейта : Переменный
Битрейт : 103 Кбит/сек
Каналы : 2 канала
Частота : 44,1 КГц
Метод сжатия : С потерями
Размер потока : 32,5 Мбайт (9%)
Выравнивание : Соединение по промежуткам
Продолжительность промежутка : 26 мс. (0,63 видеокадр)
Время предзагрузки промежутка : 411 мс.
Библиотека кодирования : LAME3.95
Настройки программы : -m j -V 4 -q 3 -lowpass 15.3 --abr 103

Скриншоты

06. Lost Survivor Guide. Air date: 7.02.2007

Остаться в живых: Руководство выжившего / Lost Survivor Guide
Продолжительность: 00:42:34
Перевод: Субтитры
Субтитры: только русские
Описание: "Lost Survivor Guide" - это клип-шоу, которое вышло в американский телеэфир 7 февраля 2007 года, завершив 13-недельную паузу, образовавшуюся после "минисезона" из первых шести эпизодов Сезона 3, и демонстрировалось в течение часа перед возобновлением сезона эпизодом 3х07 "Not in Portland" / "Не Портленд".
Впервые обзорную серию представляют исполнительные продюсеры Lost Damon Lindelof / Деймон Линделоф (также - один из создателей сериала) и Carlton Cuse / Карлтон Кьюз. Текст от автора читает киноактёр Kyle MacLachlan / Кайл МакЛахлан.
Доп. информация: Русские субтитры представляют собой компиляцию гугль-переводов болгарских и польских субтитров, взятых на ресурсе allsubs.org, основательно отредактированную мной со слуха и по смыслу. За идеальную точность перевода не ручаюсь, но соответствие его общему смыслу произносимого текста гарантирую. Никаких иных субтитров к этой серии в природе, по-видимому, не существует.
Субтитры не очень чётко синхронизированы с видеофайлом - можно поднастроить непосредственно на плеере, но если кто-нибудь возьмёт на себя труд переразметить файл субтитров, буду весьма признателен.
Качество: HDTVRip
Формат видео: AVI
Видео кодек: XviD
Аудио кодек: MP3
Видео: MPEG-4 Visual (XviD), 624*352 (16:9), 23,976 fps, 1006 kbps
Аудио: MPEG Audio (MP3), 48,0 kHz, 2 ch, 131 kbps

MI

Общее
Полное имя : F:\MyTorrents\Lost - Recaps\06 - Lost Survivor Guide\Lost.Survivor.Guide.2007.avi
Формат : AVI
Формат/Информация : Audio Video Interleave
Размер файла : 350 Мбайт
Продолжительность : 42 м.
Режим общего битрейта : Переменный
Общий поток : 1150 Кбит/сек
Программа кодирования : VirtualDubMod 1.5.4.1 (build 2178/release)
Библиотека кодирования : VirtualDubMod build 2178/release
Видео
Идентификатор : 0
Формат : MPEG-4 Visual
Профиль формата : Simple@L3
Параметр BVOP формата : 1
Параметр QPel формата : Нет
Параметр GMC формата : Без точки перехода
Параметр матрицы формата : Выборочная
Идентификатор кодека : XVID
Идентификатор кодека/Подсказка : XviD
Продолжительность : 42 м.
Битрейт : 1006 Кбит/сек
Ширина : 624 пикселя
Высота : 352 пикселя
Соотношение сторон : 16:9
Частота кадров : 23,976 кадра/сек
Цветовое пространство : YUV
Субдискретизация насыщенности : 4:2:0
Битовая глубина : 8 бит
Тип развёртки : Прогрессивная
Метод сжатия : С потерями
Бит/(Пиксели*Кадры) : 0.191
Размер потока : 306 Мбайт (88%)
Библиотека кодирования : XviD 1.0.1 (UTC 2004-06-05)
Аудио
Идентификатор : 1
Формат : MPEG Audio
Версия формата : Version 1
Профиль формата : Layer 3
Режим : Joint stereo
Идентификатор кодека : 55
Идентификатор кодека/Подсказка : MP3
Продолжительность : 42 м.
Вид битрейта : Переменный
Битрейт : 131 Кбит/сек
Номинальный битрейт : 144 Кбит/сек
Каналы : 2 канала
Частота : 48,0 КГц
Метод сжатия : С потерями
Размер потока : 39,8 Мбайт (11%)
Выравнивание : Соединение по промежуткам
Продолжительность промежутка : 24 мс. (0,58 видеокадр)
Время предзагрузки промежутка : 546 мс.
Библиотека кодирования : LAME3.97b
Настройки программы : -m j -V 4 -q 2 -lowpass 17.5 --abr 144

Скриншоты

07. Lost: The Answers. Air date: 17.05.2007

Остаться в живых: Ответы / Lost: The Answers
Продолжительность: 00:38:40
Перевод: Субтитры
Субтитры: русские, английские
Описание: Вопросы, на которые уже получены ответы, и загадки, ещё не разгаданные выжившими с рейса Ошеаник 815, находятся в фокусе внимания обзорного эпизода, названного "Lost: The Answers" и показанного на телеканале ABC 17 мая 2007 года - в предвкушении финального эпизода Третьего Сезона.
Этот обзор возвращается к загадкам, получившим своё разрешение: в частности, как белый медведь оказался на острове в южной части Тихого океана; что послужило причиной катастрофы рейса Ошеаник 815; кто был в люке; что случилось с группой ДХАРМА; как Локк оказался в инвалидном кресле; что совершила Кейт, став одной из самых разыскиваемых беглянок Америки; а также кто был настоящим Сойером - мошенником, чья афера стала причиной смерти родителей Джеймса Форда. Кроме того, обзор рассказывает о загадках, которые ещё остаются неразгаданными.
Эту обзорную серию, как и предыдущую, представляют исполнительные продюсеры Lost Damon Lindelof / Деймон Линделоф (также - один из создателей сериала) и Carlton Cuse / Карлтон Кьюз. Текст от автора читает киноактёр Kyle MacLachlan / Кайл МакЛахлан.
Доп. информация:
1. Русские и английские субтитры взяты на ресурсе allsubs.org, слегка мной поправлены со слуха и по смыслу.
2. Рекламный блок с 23 по 26 минуты не вырезан, так как все известные файлы субтитров размечены с учётом его наличия.
Качество: HDTVRip
Формат видео: AVI
Видео кодек: XviD
Аудио кодек: MP3
Видео: MPEG-4 Visual (XviD), 624*352 (16:9), 23,976 fps, 1122 kbps
Аудио: MPEG Audio (MP3), 48,0 kHz, 2 ch, 128 kbps

MI

Общее
Полное имя : F:\MyTorrents\Lost - Recaps\07 - Lost The Answers\Lost.The.Answers.2007.avi
Формат : AVI
Формат/Информация : Audio Video Interleave
Размер файла : 350 Мбайт
Продолжительность : 38 м.
Режим общего битрейта : Переменный
Общий поток : 1267 Кбит/сек
Программа кодирования : cant touch this
Видео
Идентификатор : 0
Формат : MPEG-4 Visual
Профиль формата : Advanced Simple@L5
Параметр BVOP формата : 2
Параметр QPel формата : Нет
Параметр GMC формата : Без точки перехода
Параметр матрицы формата : Default (H.263)
Режим смешивания : Сжатый битовый поток
Идентификатор кодека : XVID
Идентификатор кодека/Подсказка : XviD
Продолжительность : 38 м.
Битрейт : 1122 Кбит/сек
Ширина : 624 пикселя
Высота : 352 пикселя
Соотношение сторон : 16:9
Частота кадров : 23,976 кадра/сек
Цветовое пространство : YUV
Субдискретизация насыщенности : 4:2:0
Битовая глубина : 8 бит
Тип развёртки : Прогрессивная
Метод сжатия : С потерями
Бит/(Пиксели*Кадры) : 0.213
Размер потока : 310 Мбайт (89%)
Библиотека кодирования : XviD 1.2.0SMP (UTC 2006-01-08)
Аудио
Идентификатор : 1
Формат : MPEG Audio
Версия формата : Version 1
Профиль формата : Layer 3
Режим : Joint stereo
Идентификатор кодека : 55
Идентификатор кодека/Подсказка : MP3
Продолжительность : 38 м.
Вид битрейта : Переменный
Битрейт : 128 Кбит/сек
Каналы : 2 канала
Частота : 48,0 КГц
Метод сжатия : С потерями
Размер потока : 36,6 Мбайт (10%)
Выравнивание : Соединение по промежуткам
Продолжительность промежутка : 24 мс. (0,58 видеокадр)
Библиотека кодирования : LAME3.96r
Настройки программы : -m j -V 4 -q 3 -lowpass 17.5 --abr 128

Скриншоты

08. Lost: Past, Present and Future. Air date: 31.01.2008

Остаться в живых: Прошлое, настоящее и будущее / Lost: Past, Present and Future
Продолжительность: 00:40:29
Перевод: Субтитры
Субтитры: русские, английские
Описание: "Lost: Past, Present and Future" был показан американским телезрителям в четверг, 31 января 2008 года, за час до эфира стартового эпизода Четвёртого Сезона "The Beginning of the End" / "Начало конца". Этот обзор обращает пристальный взгляд на тайны Острова и его обитателей и представляет как загадки, уже получившие своё разрешение, так и те, которые ещё ждут разгадок.
Когда самолёт Ошеаник рейс 815 рухнул на остров посреди Тихого океана, каждому выжившему был дан выбор: жить вместе или умереть поодиночке. Оказавшись в столь мистическом месте, им пришлось преодолевать своё прошлое и сталкиваться с тенями, пришедшими из него, для того чтобы выжить и ответить на вопросы, которые докучали им в ходе их новой жизни на острове. Где они? Есть ли спасение? Что ещё есть на этом острове? История их выживания воссоздаётся в "Lost: Past, Present and Future" в порядке подготовки к шокирующей премьере четвёртого сезона, которая всё перевернёт.
Текст от автора в этой обзорной серии, так же как и в "Lost: A Tale of Survival", читает актёр, исполнитель роли Бена в сериале "Lost" Michael Emerson / Майкл Эмерсон.
Доп. информация: Русские и английские субтитры взяты на ресурсе allsubs.org, слегка мной поправлены со слуха и по смыслу.
Качество: HDTVRip
Формат видео: AVI
Видео кодек: XviD
Аудио кодек: MP3
Видео: MPEG-4 Visual (XviD), 624*352 (16:9), 23,976 fps, 1068 kbps
Аудио: MPEG Audio (MP3), 48,0 kHz, 2 ch, 128 kbps

MI

Общее
Полное имя : F:\MyTorrents\Lost - Recaps\08 - Lost Past Present and Future\Lost.Past.Present.and.Future.2008.avi
Формат : AVI
Формат/Информация : Audio Video Interleave
Размер файла : 350 Мбайт
Продолжительность : 40 м.
Режим общего битрейта : Переменный
Общий поток : 1208 Кбит/сек
Программа кодирования : cant touch this
Видео
Идентификатор : 0
Формат : MPEG-4 Visual
Профиль формата : Advanced Simple@L5
Параметр BVOP формата : 2
Параметр QPel формата : Нет
Параметр GMC формата : Без точки перехода
Параметр матрицы формата : Default (H.263)
Идентификатор кодека : XVID
Идентификатор кодека/Подсказка : XviD
Продолжительность : 40 м.
Битрейт : 1068 Кбит/сек
Ширина : 624 пикселя
Высота : 352 пикселя
Соотношение сторон : 16:9
Частота кадров : 23,976 кадра/сек
Цветовое пространство : YUV
Субдискретизация насыщенности : 4:2:0
Битовая глубина : 8 бит
Тип развёртки : Прогрессивная
Метод сжатия : С потерями
Бит/(Пиксели*Кадры) : 0.203
Размер потока : 309 Мбайт (88%)
Библиотека кодирования : XviD 1.2.0SMP (UTC 2006-01-08)
Аудио
Идентификатор : 1
Формат : MPEG Audio
Версия формата : Version 1
Профиль формата : Layer 3
Режим : Joint stereo
Расширение режима : MS Stereo
Идентификатор кодека : 55
Идентификатор кодека/Подсказка : MP3
Продолжительность : 40 м.
Вид битрейта : Переменный
Битрейт : 128 Кбит/сек
Каналы : 2 канала
Частота : 48,0 КГц
Метод сжатия : С потерями
Размер потока : 36,9 Мбайт (11%)
Выравнивание : Соединение по промежуткам
Продолжительность промежутка : 24 мс. (0,58 видеокадр)
Библиотека кодирования : LAME3.90.
Настройки программы : -m j -V 4 -q 2 -lowpass 17.6 --abr 128

Скриншоты

09. Lost: Destiny Calls. Air date: 21.01.2009

Остаться в живых: Судьба зовёт / Lost: Destiny Calls
Продолжительность: 00:41:55
Перевод: Субтитры
Субтитры: русские, английские
Описание: "Lost: Destiny Calls" - это клип-шоу, представляющее собой обзор флэшбэков, флэшфорвардов и событий, происшедших на Острове в течение первых четырёх сезонов. Клип-шоу демонстрировалось в американском телеэфире 21 сентября 2009 года, перед двухчасовой премьерой Пятого Сезона Lost.
Эту обзорную серию, как и некоторые из предыдущих, представляют исполнительные продюсеры "Lost" Damon Lindelof / Деймон Линделоф (также - один из создателей сериала) и Carlton Cuse / Карлтон Кьюз. Текст от автора читает киноактёр, исполнитель роли Хораса Гудспида в сериале "Lost" Doug Hutchison / Дуг Хатчисон.
Некоторые фрагменты обзора:
ЛИНДЕЛОФ: Инициатива ДХАРМА была на Острове где-то в 70х - начале 80х годов.
ЛИНДЕЛОФ: Бену сказали, что Локк заменит его в качестве лидера Острова, и Бен не был счастлив по этому поводу.
КЬЮЗ: А их миссия была - забрать не только Бенджамина Лайнуса, но забрать всех, кто был на Острове.
ЛИНДЕЛОФ: Мы знаем, что Бен - плохой парень, но это судно было набито парнями, ещё худшими, и они пытались взять его. Послали 15 вооружённых мужиков, чтоб взять одного шибздика.
КЬЮЗ: Извлечь его. Да.
ЛИНДЕЛОФ: Да, но безуспешно... Он их всех поубивал.
Доп. информация:
1. Русские и английские субтитры взяты на ресурсе allsubs.org, слегка мной поправлены со слуха и по смыслу.
2. Отдельным файлом прилагается русская звуковая дорожка к данной серии - озвучка неизвестного происхождения.
3. Прилагается также транскрипт данной серии на английском языке. Простой текстовый файл. Взято на lostpedia.
4. Эта серия в высоком качестве имеется в раздаче: http://rutracker.org/forum/viewtopic.php?t=1477530
Качество: HDTVRip
Формат видео: AVI
Видео кодек: XviD
Аудио кодек: MP3
Видео: MPEG-4 Visual (XviD), 624*352 (16:9), 23,976 fps, 1026 kbps
Аудио: MPEG Audio (MP3), 48,0 kHz, 2 ch, 130 kbps

MI

Общее
Полное имя : F:\MyTorrents\Lost - Recaps\09 - Lost Destiny Calls\Lost.Destiny.Calls.2009.avi
Формат : AVI
Формат/Информация : Audio Video Interleave
Размер файла : 351 Мбайт
Продолжительность : 41 м.
Режим общего битрейта : Переменный
Общий поток : 1169 Кбит/сек
Программа кодирования : MEncoder dev-SVN-r26059-4.1.2
Библиотека кодирования : MPlayer
Видео
Идентификатор : 0
Формат : MPEG-4 Visual
Профиль формата : Advanced Simple@L5
Параметр BVOP формата : 1
Параметр QPel формата : Нет
Параметр GMC формата : Без точки перехода
Параметр матрицы формата : Default (H.263)
Режим смешивания : Сжатый битовый поток
Идентификатор кодека : XVID
Идентификатор кодека/Подсказка : XviD
Продолжительность : 41 м.
Битрейт : 1026 Кбит/сек
Ширина : 624 пикселя
Высота : 352 пикселя
Соотношение сторон : 16:9
Частота кадров : 23,976 кадра/сек
Цветовое пространство : YUV
Субдискретизация насыщенности : 4:2:0
Битовая глубина : 8 бит
Тип развёртки : Прогрессивная
Метод сжатия : С потерями
Бит/(Пиксели*Кадры) : 0.195
Размер потока : 308 Мбайт (88%)
Библиотека кодирования : XviD 1.2.0.dev47 (UTC 2006-11-01)
Аудио
Идентификатор : 1
Формат : MPEG Audio
Версия формата : Version 1
Профиль формата : Layer 3
Режим : Joint stereo
Расширение режима : MS Stereo
Идентификатор кодека : 55
Идентификатор кодека/Подсказка : MP3
Продолжительность : 41 м.
Вид битрейта : Переменный
Битрейт : 130 Кбит/сек
Номинальный битрейт : 144 Кбит/сек
Каналы : 2 канала
Частота : 48,0 КГц
Метод сжатия : С потерями
Размер потока : 39,1 Мбайт (11%)
Выравнивание : Соединение по промежуткам
Продолжительность промежутка : 24 мс. (0,58 видеокадр)
Время предзагрузки промежутка : 567 мс.
Библиотека кодирования : LAME3.97
Настройки программы : -m j -V 4 -q 2 -lowpass 17.5 --abr 144

Скриншоты

10. Lost: The Story of the Oceanic 6. Air date: 22.04.2009

Остаться в живых: Рассказ о Шестёрке Ошеаник / Lost: The Story of the Oceanic 6
Продолжительность: 00:41:54
Перевод: Субтитры
Субтитры: русские, английские
Описание: "Lost: The Story of the Oceanic 6" - клип-шоу, вышедшее в американский телеэфир 22 апреля 2009 года, через неделю после эпизода 5х13 "Some Like It Hoth" / "Некоторые любят похолоднее" и за неделю до эпизода 5х14 "The Variable" / "Переменная".
Этот обзор отличается от других тем, что рассказывает только об одной сюжетной линии, относящейся к текущему сезону, а именно об истории Шестёрки Ошеаник, о событиях, которые произошли после их спасения с острова и которые привели их к возвращению на остров, и не касается более давних событий и событий, последовавших за возвращением.
Текст от автора в этой обзорной серии читает актёр, исполнитель роли Ричарда в сериале "Lost" Nestor Carbonell / Нестор Карбонелл.
Доп. информация:
1. Русские и английские субтитры взяты на ресурсе allsubs.org, слегка мной поправлены со слуха и по смыслу.
2. Прилагается транскрипт данной серии на английском языке. Простой текстовый файл. Взято на lostpedia.
3. Эта серия в высоком качестве имеется в раздаче: http://rutracker.org/forum/viewtopic.php?t=1790484
Качество: HDTVRip
Формат видео: AVI
Видео кодек: XviD
Аудио кодек: MP3
Видео: MPEG-4 Visual (XviD), 624*352 (16:9), 23,976 fps, 1028 kbps
Аудио: MPEG Audio (MP3), 48,0 kHz, 2 ch, 128 kbps

MI

Общее
Полное имя : F:\MyTorrents\Lost - Recaps\10 - Lost The Story of the Oceanic 6\Lost.The.Story.of.the.Oceanic.6.2009.avi
Формат : AVI
Формат/Информация : Audio Video Interleave
Размер файла : 350 Мбайт
Продолжительность : 41 м.
Режим общего битрейта : Переменный
Общий поток : 1168 Кбит/сек
Программа кодирования : MEncoder dev-SVN-r26059-4.1.2
Библиотека кодирования : MPlayer
Видео
Идентификатор : 0
Формат : MPEG-4 Visual
Профиль формата : Advanced Simple@L5
Параметр BVOP формата : 2
Параметр QPel формата : Нет
Параметр GMC формата : Без точки перехода
Параметр матрицы формата : Default (H.263)
Режим смешивания : Сжатый битовый поток
Идентификатор кодека : XVID
Идентификатор кодека/Подсказка : XviD
Продолжительность : 41 м.
Битрейт : 1028 Кбит/сек
Ширина : 624 пикселя
Высота : 352 пикселя
Соотношение сторон : 16:9
Частота кадров : 23,976 кадра/сек
Цветовое пространство : YUV
Субдискретизация насыщенности : 4:2:0
Битовая глубина : 8 бит
Тип развёртки : Прогрессивная
Метод сжатия : С потерями
Бит/(Пиксели*Кадры) : 0.195
Размер потока : 308 Мбайт (88%)
Библиотека кодирования : XviD 1.2.1 (UTC 2008-12-04)
Аудио
Идентификатор : 1
Формат : MPEG Audio
Версия формата : Version 1
Профиль формата : Layer 3
Режим : Joint stereo
Расширение режима : MS Stereo
Идентификатор кодека : 55
Идентификатор кодека/Подсказка : MP3
Продолжительность : 41 м.
Вид битрейта : Переменный
Битрейт : 128 Кбит/сек
Каналы : 2 канала
Частота : 48,0 КГц
Метод сжатия : С потерями
Задержка видео : 8 мс.
Размер потока : 38,2 Мбайт (11%)
Выравнивание : Разделение по промежуткам
Продолжительность промежутка : 24 мс. (0,58 видеокадр)
Время предзагрузки промежутка : 539 мс.

Скриншоты

11. Lost: A Journey in Time. Air date: 13.05.2009

Остаться в живых: Путешествие во времени / Lost: A Journey in Time
Продолжительность: 00:41:54
Перевод: Субтитры
Субтитры: русские, английские
Описание: "Lost: A Journey in Time" - это обзорный эпизод, вышедший в американский телеэфир 13 мая 2009 года, в преддверии двухчасового финала Сезона 5, завершившегося сдвоенным эпизодом 5х16-17 "The Incident, Parts 1 & 2" / "Инцидент, части 1 и 2".
Обзор представляют исполнительные продюсеры сериала Damon Lindelof / Деймон Линделоф и Carlton Cuse / Карлтон Кьюз. Текст от автора читает киноактёр Michael Emerson / Майкл Эмерсон.
Деймон Линделоф и Карлтон Кьюз раскрывают в этом обзоре, что причина, по которой некоторые выжившие были перемещены в 1977 год, тогда как другие остались в настоящем, заключается в том, что они не сумели с необходимой точностью воспроизвести обстоятельства рейса 815 на борту рейса 316. Эти некоторые различия привели к тому, что выжившие "успешно" рухнули на остров, но не совсем так, как планировали.
Деймон и Карлтон также утверждают, что каждый прыжок Локка, Сойера, Джулиет и других сквозь время сопровождался их посещением некоего важного, значительного момента в истории Острова.
Доп. информация: Русские и английские субтитры взяты на ресурсе allsubs.org, слегка мной поправлены со слуха и по смыслу.
Качество: HDTVRip
Формат видео: AVI
Видео кодек: XviD
Аудио кодек: MP3
Видео: MPEG-4 Visual (XviD), 624*352 (16:9), 23,976 fps, 1029 kbps
Аудио: MPEG Audio (MP3), 48,0 kHz, 2 ch, 128 kbps

MI

Общее
Полное имя : F:\MyTorrents\Lost - Recaps\11 - Lost A Journey in Time\Lost.A.Journey.In.Time.2009.avi
Формат : AVI
Формат/Информация : Audio Video Interleave
Размер файла : 351 Мбайт
Продолжительность : 41 м.
Режим общего битрейта : Переменный
Общий поток : 1170 Кбит/сек
Программа кодирования : MEncoder dev-SVN-r26059-4.1.2
Библиотека кодирования : MPlayer
Видео
Идентификатор : 0
Формат : MPEG-4 Visual
Профиль формата : Advanced Simple@L5
Параметр BVOP формата : 2
Параметр QPel формата : Нет
Параметр GMC формата : Без точки перехода
Параметр матрицы формата : Default (H.263)
Режим смешивания : Сжатый битовый поток
Идентификатор кодека : XVID
Идентификатор кодека/Подсказка : XviD
Продолжительность : 41 м.
Битрейт : 1029 Кбит/сек
Ширина : 624 пикселя
Высота : 352 пикселя
Соотношение сторон : 16:9
Частота кадров : 23,976 кадра/сек
Цветовое пространство : YUV
Субдискретизация насыщенности : 4:2:0
Битовая глубина : 8 бит
Тип развёртки : Прогрессивная
Метод сжатия : С потерями
Бит/(Пиксели*Кадры) : 0.195
Размер потока : 308 Мбайт (88%)
Библиотека кодирования : XviD 1.2.1 (UTC 2008-12-04)
Аудио
Идентификатор : 1
Формат : MPEG Audio
Версия формата : Version 1
Профиль формата : Layer 3
Режим : Joint stereo
Расширение режима : MS Stereo
Идентификатор кодека : 55
Идентификатор кодека/Подсказка : MP3
Продолжительность : 41 м.
Вид битрейта : Переменный
Битрейт : 128 Кбит/сек
Каналы : 2 канала
Частота : 48,0 КГц
Метод сжатия : С потерями
Задержка видео : 8 мс.
Размер потока : 38,6 Мбайт (11%)
Выравнивание : Разделение по промежуткам
Продолжительность промежутка : 24 мс. (0,58 видеокадр)
Время предзагрузки промежутка : 497 мс.

Скриншоты

12. Lost: Final Chapter. Air date: 2.02.2010

Остаться в живых: Последняя глава / Lost: Final Chapter
Продолжительность: 00:42:27
Перевод: Субтитры
Субтитры: русские, английские
Описание: "Lost: Final Chapter" - это клип-шоу, демонстрировавшееся в американском телеэфире 2 февраля 2010 года, непосредственно перед двухчасовой премьерой Сезона 6 (сдвоенный эпизод 6х01-02 "LA X, Parts 1 & 2" / "Аэропорт Лос-Анджелеса, части 1 и 2").
В этом обзоре - рассказ о катастрофе самолёта Ошеаник рейс 815, о тайнах острова, о его обитателях, о Шестёрке Ошеаник, об удивительных сдвигах времени на острове и о взрыве водородной бомбы. Мы также поразбираемся в некоторых вопросах, которые уже получили свои ответы, и напомним о тех, которые продолжают хранить тайну.
Текст от автора в этой обзорной серии, так же как и в нескольких предыдущих, читает актёр, исполнитель роли Бена в сериале "Lost" Michael Emerson / Майкл Эмерсон.
Доп. информация:
1. Русские и английские субтитры взяты на ресурсе allsubs.org, слегка мной поправлены со слуха и по смыслу.
2. Эта серия в высоком качестве имеется в следующей раздаче: http://rutracker.org/forum/viewtopic.php?t=2732591
Качество: HDTVRip
Формат видео: AVI
Видео кодек: XviD
Аудио кодек: MP3
Видео: MPEG-4 Visual (XviD), 624*352 (16:9), 23,976 fps, 1015 kbps
Аудио: MPEG Audio (MP3), 48,0 kHz, 2 ch, 112 kbps

MI

Общее
Полное имя : F:\MyTorrents\Lost - Recaps\12 - Lost Final Chapter\Lost.Final.Chapter.2010.avi
Формат : AVI
Формат/Информация : Audio Video Interleave
Размер файла : 350 Мбайт
Продолжительность : 42 м.
Режим общего битрейта : Переменный
Общий поток : 1152 Кбит/сек
Программа кодирования : transcode-1.0.2
Видео
Идентификатор : 0
Формат : MPEG-4 Visual
Профиль формата : Advanced Simple@L5
Параметр BVOP формата : 2
Параметр QPel формата : Нет
Параметр GMC формата : Без точки перехода
Параметр матрицы формата : Default (H.263)
Режим смешивания : Сжатый битовый поток
Идентификатор кодека : XVID
Идентификатор кодека/Подсказка : XviD
Продолжительность : 42 м.
Битрейт : 1015 Кбит/сек
Ширина : 624 пикселя
Высота : 352 пикселя
Соотношение сторон : 16:9
Частота кадров : 23,976 кадра/сек
Цветовое пространство : YUV
Субдискретизация насыщенности : 4:2:0
Битовая глубина : 8 бит
Тип развёртки : Прогрессивная
Метод сжатия : С потерями
Бит/(Пиксели*Кадры) : 0.193
Размер потока : 308 Мбайт (88%)
Библиотека кодирования : XviD 1.2.1 (UTC 2008-12-04)
Аудио
Идентификатор : 1
Формат : MPEG Audio
Версия формата : Version 1
Профиль формата : Layer 3
Режим : Joint stereo
Расширение режима : MS Stereo
Идентификатор кодека : 55
Идентификатор кодека/Подсказка : MP3
Продолжительность : 42 м.
Вид битрейта : Переменный
Битрейт : 112 Кбит/сек
Каналы : 2 канала
Частота : 48,0 КГц
Метод сжатия : С потерями
Размер потока : 37,7 Мбайт (11%)
Выравнивание : Соединение по промежуткам
Продолжительность промежутка : 24 мс. (0,58 видеокадр)

Скриншоты

13. Lost: The Final Journey. Air date: 23.05.2010

Остаться в живых: Последнее путешествие / Lost: The Final Journey
Продолжительность: 01:18:56
Перевод: Субтитры
Субтитры: русские, английские
Описание: "Lost: The Final Journey" - это клип-шоу, которое вышло в американский телеэфир 23 мая 2010 года, перед премьерой двухсполовинойчасового финала Lost.
Показ финального эпизода сериала "Lost" был предварён двухчасовым обзором, направившим ретроспективный взгляд на события всех шести сезонов этого потрясшего Землю телесериала.
Эту обзорную серию, как и некоторые из предыдущих, представляют исполнительные продюсеры "Lost" Damon Lindelof / Деймон Линделоф (также - один из создателей сериала) и Carlton Cuse / Карлтон Кьюз. Текст от автора читает киноактёр, исполнитель роли Человека-в-чёрном в сериале "Lost" Titus Welliver / Титус Велливер.
Своими комментариями к сериалу и к своему участию в нём делятся актёры, исполнители главных ролей Naveen Andrews / Навин Эндрюс, Nestor Carbonell / Нестор Карбонелл, Henry Ian Cusick / Хенри Йен Кьюсик, Emilie de Ravin / Эмили де Рейвин, Michael Emerson / Майкл Эмерсон, Matthew Fox / Мэттью Фокс, Jorge Garcia / Хорхе Гарсиа, Josh Holloway / Джош Холлоуэй, Daniel Dae Kim / Дэниел Дэ Ким, Yunjin Kim / Юнджин Ким, Evangeline Lilly / Эванджелин Лилли, Terry O'Quinn / Терри О'Куинн.
Доп. информация:
1. Русские и английские субтитры взяты на ресурсе allsubs.org, поправлены мной со слуха и по смыслу.
2. Эта серия в высоком качестве имеется в следующих раздачах: http://rutracker.org/forum/viewtopic.php?t=2716794, http://rutracker.org/forum/viewtopic.php?t=2986606
Качество: HDTVRip
Формат видео: AVI
Видео кодек: XviD
Аудио кодек: MP3
Видео: MPEG-4 Visual (XviD), 624*352 (16:9), 23,976 fps, 1098 kbps
Аудио: MPEG Audio (MP3), 48,0 kHz, 2 ch, 128 kbps

MI

Общее
Полное имя : F:\MyTorrents\Lost - Recaps\13 - Lost The Final Journey\Lost.The.Final.Journey.2010.avi
Формат : AVI
Формат/Информация : Audio Video Interleave
Размер файла : 700 Мбайт
Продолжительность : 1 ч. 18 м.
Режим общего битрейта : Переменный
Общий поток : 1240 Кбит/сек
Программа кодирования : MEncoder dev-SVN-r26940
Библиотека кодирования : MPlayer
Видео
Идентификатор : 0
Формат : MPEG-4 Visual
Профиль формата : Advanced Simple@L5
Параметр BVOP формата : 2
Параметр QPel формата : Нет
Параметр GMC формата : Без точки перехода
Параметр матрицы формата : Default (H.263)
Режим смешивания : Сжатый битовый поток
Идентификатор кодека : XVID
Идентификатор кодека/Подсказка : XviD
Продолжительность : 1 ч. 18 м.
Битрейт : 1098 Кбит/сек
Ширина : 624 пикселя
Высота : 352 пикселя
Соотношение сторон : 16:9
Частота кадров : 23,976 кадра/сек
Цветовое пространство : YUV
Субдискретизация насыщенности : 4:2:0
Битовая глубина : 8 бит
Тип развёртки : Прогрессивная
Метод сжатия : С потерями
Бит/(Пиксели*Кадры) : 0.209
Размер потока : 620 Мбайт (89%)
Библиотека кодирования : XviD 1.2.1 (UTC 2008-12-04)
Аудио
Идентификатор : 1
Формат : MPEG Audio
Версия формата : Version 1
Профиль формата : Layer 3
Режим : Joint stereo
Расширение режима : MS Stereo
Идентификатор кодека : 55
Идентификатор кодека/Подсказка : MP3
Продолжительность : 1 ч. 18 м.
Вид битрейта : Переменный
Битрейт : 128 Кбит/сек
Каналы : 2 канала
Частота : 48,0 КГц
Метод сжатия : С потерями
Размер потока : 73,1 Мбайт (10%)
Выравнивание : Соединение по промежуткам
Продолжительность промежутка : 24 мс. (0,58 видеокадр)
Время предзагрузки промежутка : 498 мс.

Скриншоты

ВСЕМ ПРИЯТНОГО ПРОСМОТРА!
Вы не можете начинать темы
Вы не можете отвечать на сообщения
Вы не можете редактировать свои сообщения
Вы не можете удалять свои сообщения
Вы не можете голосовать в опросах
Вы не можете прикреплять файлы к сообщениям
Вы можете скачивать файлы
!ВНИМАНИЕ!

Сайт не предоставляет электронные версии произведений, а занимается лишь коллекционированием и каталогизацией ссылок, присылаемых и публикуемых на форуме нашими читателями. Если вы являетесь правообладателем какого-либо представленного материала и не желаете, чтобы ссылка на него находилась в нашем каталоге, свяжитесь с нами, и мы незамедлительно удалим ее. Файлы для обмена на трекере предоставлены пользователями сайта, и администрация не несет ответственности за их содержание. Просьба не заливать файлы, защищенные авторскими правами, а также файлы нелегального содержания!

Искали программы, игры, дополнения, музыка mp3, аниме, аудио книги, журналы? Добро пожаловать на свободный торрент трекер Torrents, у нас можно скачать бесплатно, без смс и регистрации и прочих ограничений лучшие, отборные сборки программ, игр. Скачать торрентом не составит труда даже не опытному пользователю. Раздачи ежедневно обновляются, только лучшие и качественные раздачи, подробные описания и скриншоты. Огромная коллекция программ для работы со звуком, графикой, дизайном, а так же множество плагинов и инструментов к ним с подробной инструкцией и рекомендациями. Прошивки для навигаторов, карты. Разнообразные игры, для Windows, Linux. В коллекцие есть и старые игры любых жанров, Rpg, Action, Shooter, strategy Множество дополнений, модификаций, сценариев для популярных игр в жанре экш, рпг, гонки, стратегии, логические игры. Множество аддонов и сценариев для Microsoft Flight Simulator Большая коллекция книг, учебников. Если нет возможности купить печатное издание - смело скачивайте цифровую версию книги или, быть может, журнала. Не любите читать - можно загрузить бесплатно аудикнигу. Для веб дизайнеров и программистов так же найдется множество специализированного софта, таких как: редакторы с подсветкой, среды программирования, компоненты, системы управления базами данных, разнообразные скрипты и шаблоны. Не так давно у нас появился материал для автолюбителей и владельцев мото - оригинальные и неоригинальные каталоги запчастей, книги и журналы по ремонту и обслуживанию, видеоуроки, статьи по чип тюнингу, прошивкам. Процедура получения контента элементарная, достаточно просто скачать торрент файл и добавить его в загрузку в вашем торрент клиенте. Если у вас нет специального торрент клиента, вы можете его скачать у нас.