39.Коломбо: Убийство в старом стиле / Columbo: Old Fashioned Murder (Роберт Дуглас) [1976, Психологический детектив, DVD5] 

Цитировать
39.Коломбо: Убийство в старом стиле / Columbo: Old Fashioned Murder
Год выпуска: 1976
Страна: USA
Жанр: Психологический детектив
Сценарий: Питер Фибельман
Производство: Universal
Продолжительность: 01:12:32
Перевод: Профессиональный (двухголосый)
Режиссер: Роберт Дуглас
В ролях: Питер Фальк, Джойс Ван Паттен (Рут Литтон), Селеста Хольм (Филлис Брандт),
Джанни Берлин (Джейни Брандт)
Описание: Рут Литтон поставила целью своей жизни заботу о семейном музее средневековых
предметов искусства. Ее прагматичный брат Эдвард внезапно принимает решение закрыть музей,
так как он не приносит прибыли. И тогда Рут затевает историю с ограблением, для того чтобы
получить деньги от страховой компании и расплатиться с братом.
Релиз из коллекции Vikkara
Качество: DVD5
Формат: DVD Video
Видео: MPEG Video, PAL 4:3 (720x576) VBR, 4358 Kbps
Аудио: Russian - MPEG1, 2 ch, 48.0 KHz, 256 Kbps; English - Dolby AC3, 2 ch, 224 Kbps, 48.0 KHz
MediaInfo
Format : MPEG-PS
File size : 1 024 MiB
Duration : 28mn 25s
Overall bit rate : 5 038 Kbps
Video
ID : 224 (0xE0)
Format : MPEG Video
Format version : Version 2
Format profile : Main@Main
Format settings, Matrix : Default
Duration : 28mn 25s
Bit rate mode : Variable
Bit rate : 4 358 Kbps
Width : 720 pixels
Height : 576 pixels
Display aspect ratio : 4:3
Frame rate : 25.000 fps
Standard : PAL
Colorimetry : 4:2:0
Bits/(Pixel*Frame) : 0.420
Stream size : 886 MiB (87%)
Audio #1
ID : 192 (0xC0)
Format : MPEG Audio
Format version : Version 1
Format profile : Layer 2
Duration : 28mn 24s
Bit rate mode : Constant
Bit rate : 256 Kbps
Channel(s) : 2 channels
Sampling rate : 48.0 KHz
Resolution : 16 bits
Video delay : -7ms
Stream size : 52.0 MiB (5%)
Audio #2
ID : 129 (0x81)
Format : AC-3
Format/Info : Audio Coding 3
Duration : 28mn 24s
Bit rate mode : Constant
Bit rate : 224 Kbps
Channel(s) : 2 channels
Channel positions : L R
Sampling rate : 48.0 KHz
Video delay : -7ms
Stream size : 45.5 MiB (4%)
Menu

Скриншоты

Вы не можете начинать темы
Вы не можете отвечать на сообщения
Вы не можете редактировать свои сообщения
Вы не можете удалять свои сообщения
Вы не можете голосовать в опросах
Вы не можете прикреплять файлы к сообщениям
Вы можете скачивать файлы
!ВНИМАНИЕ!

Сайт не предоставляет электронные версии произведений, а занимается лишь коллекционированием и каталогизацией ссылок, присылаемых и публикуемых на форуме нашими читателями. Если вы являетесь правообладателем какого-либо представленного материала и не желаете, чтобы ссылка на него находилась в нашем каталоге, свяжитесь с нами, и мы незамедлительно удалим ее. Файлы для обмена на трекере предоставлены пользователями сайта, и администрация не несет ответственности за их содержание. Просьба не заливать файлы, защищенные авторскими правами, а также файлы нелегального содержания!

Искали программы, игры, дополнения, музыка mp3, аниме, аудио книги, журналы? Добро пожаловать на свободный торрент трекер Torrents, у нас можно скачать бесплатно, без смс и регистрации и прочих ограничений лучшие, отборные сборки программ, игр. Скачать торрентом не составит труда даже не опытному пользователю. Раздачи ежедневно обновляются, только лучшие и качественные раздачи, подробные описания и скриншоты. Огромная коллекция программ для работы со звуком, графикой, дизайном, а так же множество плагинов и инструментов к ним с подробной инструкцией и рекомендациями. Прошивки для навигаторов, карты. Разнообразные игры, для Windows, Linux. В коллекцие есть и старые игры любых жанров, Rpg, Action, Shooter, strategy Множество дополнений, модификаций, сценариев для популярных игр в жанре экш, рпг, гонки, стратегии, логические игры. Множество аддонов и сценариев для Microsoft Flight Simulator Большая коллекция книг, учебников. Если нет возможности купить печатное издание - смело скачивайте цифровую версию книги или, быть может, журнала. Не любите читать - можно загрузить бесплатно аудикнигу. Для веб дизайнеров и программистов так же найдется множество специализированного софта, таких как: редакторы с подсветкой, среды программирования, компоненты, системы управления базами данных, разнообразные скрипты и шаблоны. Не так давно у нас появился материал для автолюбителей и владельцев мото - оригинальные и неоригинальные каталоги запчастей, книги и журналы по ремонту и обслуживанию, видеоуроки, статьи по чип тюнингу, прошивкам. Процедура получения контента элементарная, достаточно просто скачать торрент файл и добавить его в загрузку в вашем торрент клиенте. Если у вас нет специального торрент клиента, вы можете его скачать у нас.