Остаться в Живых (1 сезон, серии 1-25) / LOST [2004, США, BDRip HQ] [DD5.1+DD2.0] ОРТ+Tycoon 

Цитировать
Остаться в Живых / LOST / Сезон 1 (BDRip HQ)
Год выпуска: 2004
Страна: США
Жанр: приключения, мистика, драма
Продолжительность: ~43 мин./серия
Перевод 1: Профессиональный (полное дублирование) ОРТ
Перевод 2: Профессиональный (многоголосый закадровый) Tycoon
Русские субтитры: корейские диалоги переведены вшитыми субтитрами
Режиссер: Джек Бендер, Джей Джей Абрамс
В ролях: Мэтью Фокс, Эвангелина Лили, Доминик Монаган, Гарольд Перрино-мл., Джордж Гарсия, Малкольм Дэвид Келли, Фредерик Ленн, Джон Диксон, Майкл Артур и др.
Описание: Авиалайнер совершал полет над Тихим океаном и рухнул на один из его островов. С этой минуты остаться в живых станет целью для 48 уцелевших пассажиров. В экстремальной ситуации человек открывается таким, каким его раньше никто не знал. Кажется, все оказываются в общей беде. Но кто-то паникует, а кто-то обнаруживает в себе качества лидера, чтобы повести оставшихся за собой. Идти вперед - значит выжить. Поддаться общему настроению, допустить сомнения в свою душу - означает погубить не только себя, но и всех остальных. Положение уцелевших усугубляет таинственный остров. Жертвы авиакатастрофы должны победить все опасности, которыми это местечко в Тихом океане пытается их погубить. Остров расставляет для спутников опасные ловушки, тот кто не может справиться - погибает.
Доп. информация: Рип с BluRay исходника. Качество выше, чем у DVDRip и HDTVRip. Две звуковые дорожки Dolby Digital. Дубляж Первого канала и перевод студии "Тайкун" . Проигрывается на обычных бытовых плеерах (звуковые дорожки переключаются как у DVD). Размер рипа выбран из расчета 6 серий на диск (всего четыре диска)
Корейские и арабские диалоги переведены вшитыми субтитрами (точность до кадра).-Изготовление рипа и подготовка релиза - CEZAR ©-Качество: BDRip
Формат: AVI
Видео кодек: XviD
Аудио кодек: AC3
Видео: 720х400, ~1670 kbps, 23.976 fps, 0.241 bits/pixel
Аудио 1: 48000 Hz, DD 2.0 (L, R), 320 kbps, дубляж Первого канала
Аудио 2: 48000 Hz, DD 5.1 (L,C,R,sl,sr) + LFE, 448 kbps, Студия "Tycoon"
Дополнительно (отдельной раздачей)
Аудио 3: 48000 Hz, DD 5.1 (L,C,R,sl,sr) + LFE, 448 kbps, Оригинал
Субтитры: Русские (srt), Английские (srt)
Примечание: Это Рип высокого качества для комфортного просмотра на бытовом плеере. Кого интересует меньший размер (и качество), могут скачать отсюда.

Список серий

Эпизод 01 - (0:42:20) - Таинственный остров. Часть 1 / E01 - Pilot. Part 1
Эпизод 02 - (0:40:24) - Таинственный остров. Часть 2 / E02 - Pilot. Part 2
Эпизод 03 - (0:43:31) - С чистого листа / E03 - Tabula Rasa
Эпизод 04 - (0:42:47) - Жизнь на берегу / E04 - Walkabout
Эпизод 05 - (0:42:29) - Погоня за призраком / E05 - White Rabbit
Эпизод 06 - (0:41:43) - Восток дело тонкое / E06 - House Of The Rising Sun
Эпизод 07 - (0:43:24) - Новые загадки / E07 - The Moth
Эпизод 08 - (0:43:19) - Вопрос доверия / E08 - Confidence Man
Эпизод 09 - (0:43:16) - Другие / E09 - Solitary
Эпизод 10 - (0:42:55) - Человек по имени Этан Ром / E10 - Raised By Another
Эпизод 11 - (0:42:19) - В сердце джунглей / E11 - All The Best Cowboys Have Daddy Issues
Эпизод 12 - (0:43:20) - Больше, чем просто кейс / E12 - Whatever The Case May Be
Эпизод 13 - (0:43:24) - Разум и чувства / E13 - Hearts And Minds
Эпизод 14 - (0:43:22) - Способ спасения / E14 - Special
Эпизод 15 - (0:41:44) - Ультиматум / E15 - Homecoming
Эпизод 16 - (0:43:25) - Жажда мести / E16 - Outlaws
Эпизод 17 - (0:43:10) - Трудности перевода / E17 - ...In Translation
Эпизод 18 - (0:43:15) - Новая надежда / E18 - Numbers
Эпизод 19 - (0:42:48) - Что таят джунгли / E19 - Deus Ex Machina
Эпизод 20 - (0:43:22) - Близкие родственники / E20 - Do No Harm
Эпизод 21 - (0:43:22) - Благие намерения / E21 - The Greater Good
Эпизод 22 - (0:43:22) - Кое-что о Кейт / E22 - Born To Run
Эпизод 23 - (0:43:24) - Исход. Часть 1 / E23 - Exodus. Part 1
Эпизод 24 - (0:43:09) - Исход. Часть 2 / E24 - Exodus. Part 2
Эпизод 25 - (0:43:24) - Исход. Часть 3 / E25 - Exodus. Part 3

Скриншоты

Media Info

General
Complete name : G:\Torrent\LOST\Season1\season1_BDrip\Lost.S01E01.BDRip.DD5.1+DD2.0.RUS(Dubl).cezar.avi
Format : AVI
Format/Info : Audio Video Interleave
File size : 741 MiB
Duration : 42mn 20s
Overall bit rate : 2 446 Kbps
Writing application : VirtualDubMod 1.5.10.2 (build 2540/release)
Writing library : VirtualDubMod build 2540/release
Video
ID : 0
Format : MPEG-4 Visual
Format profile : AdvancedSimple@L5
Format settings, BVOP : Yes
Format settings, QPel : No
Format settings, GMC : No warppoints
Format settings, Matrix : Default (H.263)
Muxing mode : Packed bitstream
Codec ID : XVID
Codec ID/Hint : XviD
Duration : 42mn 20s
Bit rate : 1 664 Kbps
Width : 720 pixels
Height : 400 pixels
Display aspect ratio : 16:9
Frame rate : 23.976 fps
Resolution : 24 bits
Colorimetry : 4:2:0
Scan type : Progressive
Bits/(Pixel*Frame) : 0.241
Stream size : 504 MiB (68%)
Writing library : XviD 1.2.1 (UTC 2008-12-04)
Audio #1
ID : 1
Format : AC-3
Format/Info : Audio Coding 3
Format profile : Dolby Digital
Codec ID : 2000
Duration : 42mn 20s
Bit rate mode : Constant
Bit rate : 320 Kbps
Channel(s) : 2 channels
Channel positions : L R
Sampling rate : 48.0 KHz
Stream size : 96.9 MiB (13%)
Alignment : Split accross interleaves
Interleave, duration : 42 ms (1.00 video frame)
Interleave, preload duration : 500 ms
Title : OPT
Audio #2
ID : 2
Format : AC-3
Format/Info : Audio Coding 3
Codec ID : 2000
Duration : 42mn 20s
Bit rate mode : Constant
Bit rate : 448 Kbps
Channel(s) : 6 channels
Channel positions : Front: L C R, Surround: L R, LFE
Sampling rate : 48.0 KHz
Stream size : 136 MiB (18%)
Alignment : Split accross interleaves
Interleave, duration : 42 ms (1.00 video frame)
Interleave, preload duration : 500 ms
Title : Tycoon
Другие сезоны ВDrip HQ с двумя звуковыми дорожками
Вы не можете начинать темы
Вы не можете отвечать на сообщения
Вы не можете редактировать свои сообщения
Вы не можете удалять свои сообщения
Вы не можете голосовать в опросах
Вы не можете прикреплять файлы к сообщениям
Вы можете скачивать файлы
!ВНИМАНИЕ!

Сайт не предоставляет электронные версии произведений, а занимается лишь коллекционированием и каталогизацией ссылок, присылаемых и публикуемых на форуме нашими читателями. Если вы являетесь правообладателем какого-либо представленного материала и не желаете, чтобы ссылка на него находилась в нашем каталоге, свяжитесь с нами, и мы незамедлительно удалим ее. Файлы для обмена на трекере предоставлены пользователями сайта, и администрация не несет ответственности за их содержание. Просьба не заливать файлы, защищенные авторскими правами, а также файлы нелегального содержания!

Искали программы, игры, дополнения, музыка mp3, аниме, аудио книги, журналы? Добро пожаловать на свободный торрент трекер Torrents, у нас можно скачать бесплатно, без смс и регистрации и прочих ограничений лучшие, отборные сборки программ, игр. Скачать торрентом не составит труда даже не опытному пользователю. Раздачи ежедневно обновляются, только лучшие и качественные раздачи, подробные описания и скриншоты. Огромная коллекция программ для работы со звуком, графикой, дизайном, а так же множество плагинов и инструментов к ним с подробной инструкцией и рекомендациями. Прошивки для навигаторов, карты. Разнообразные игры, для Windows, Linux. В коллекцие есть и старые игры любых жанров, Rpg, Action, Shooter, strategy Множество дополнений, модификаций, сценариев для популярных игр в жанре экш, рпг, гонки, стратегии, логические игры. Множество аддонов и сценариев для Microsoft Flight Simulator Большая коллекция книг, учебников. Если нет возможности купить печатное издание - смело скачивайте цифровую версию книги или, быть может, журнала. Не любите читать - можно загрузить бесплатно аудикнигу. Для веб дизайнеров и программистов так же найдется множество специализированного софта, таких как: редакторы с подсветкой, среды программирования, компоненты, системы управления базами данных, разнообразные скрипты и шаблоны. Не так давно у нас появился материал для автолюбителей и владельцев мото - оригинальные и неоригинальные каталоги запчастей, книги и журналы по ремонту и обслуживанию, видеоуроки, статьи по чип тюнингу, прошивкам. Процедура получения контента элементарная, достаточно просто скачать торрент файл и добавить его в загрузку в вашем торрент клиенте. Если у вас нет специального торрент клиента, вы можете его скачать у нас.