Остаться в живых / Lost / Сезон: 3 / Серии: 1-23 (23) (Джек Бендер / Jack Bender, Стивен Уильямс / Stephen Williams) [2004, США, Приключение, Триллер, HDRip] MVO (Lostfilm) 

Цитировать
Остаться в живых / Lost -Год выпуска: 2004
Страна: США
Жанр: Приключение, Триллер
Продолжительность: ~43мин.
Перевод: Профессиональный (многоголосый закадровый) Lostfilm
Русские субтитры: вшитые, на корейские диалоги-Режиссёр: Джек Бендер / Jack Bender, Стивен Уильямс / Stephen Williams-В ролях: Мэттью Фокс, Майкл Эмерсон, Эванджелин Лили, Нэвин Эндрюс, Терри О'Куинн, Доминик Монаган, Джош Холлоуэй, Эмили де Рэйвин, Хорхе Гарсиа, Дэниел Дэй Ким, Ким Юн-чжин, Малкольм Дэвид Келли, Генри Йен Кьюсик, Элизабет Митчелл-Описание: Красавец-лайнер, совершающий полет из Сиднея в Лос-Анджелес, неожиданно терпит крушение. 48 пассажиров, оставшихся в живых, оказываются на пустынном острове посреди океана. Люди в панике.
Надежда быть найденными довольно призрачна. Поэтому остается только одно: собраться с силами и постараться выжить на острове, начиненном множеством опасностей…-Ссылка на предыдущие и альтернативные раздачи-Сэмпл-Качество: HDRip / BDRip
Формат: AVI
Видео кодек: XviD
Аудио кодек: MP3
Видео: 656x368 (1.78:1), 23.976 fps, XviD build 50 ~991 kbps avg, 0.17 bit/pixel
Аудио: 48 kHz, MPEG Layer 3, 2 ch, ~128.00 kbps avg

MI

FFormat : AVI
Format/Info : Audio Video Interleave
File size : 348 MiB
Duration : 43mn 18s
Overall bit rate : 1 125 Kbps
Writing application : VirtualDubMod 1.5.10.2 (build 2540/release)
Writing library : VirtualDubMod build 2540/release
Video
Format : MPEG-4 Visual
Format profile : Streaming Video@L1
Format settings, BVOP : Yes
Format settings, QPel : No
Format settings, GMC : No warppoints
Format settings, Matrix : Custom
Codec ID : XVID
Codec ID/Hint : XviD
Duration : 43mn 18s
Bit rate : 988 Kbps
Width : 656 pixels
Height : 368 pixels
Display aspect ratio : 16/9
Frame rate : 23.976 fps
Resolution : 24 bits
Colorimetry : 4:2:0
Scan type : Progressive
Bits/(Pixel*Frame) : 0.171
Stream size : 306 MiB (88%)
Writing library : XviD 1.2.1 (UTC 2008-12-04)
Audio
Format : MPEG Audio
Format version : Version 1
Format profile : Layer 3
Codec ID : 55
Codec ID/Hint : MP3
Duration : 43mn 18s
Bit rate mode : Constant
Bit rate : 128 Kbps
Minimum bit rate : 128 Kbps
Channel(s) : 2 channels
Sampling rate : 48.0 KHz
Resolution : 16 bits
Stream size : 39.7 MiB (11%)
Alignment : Aligned on interleaves
Interleave, duration : 42 ms (1.00 video frame)
Interleave, preload duration : 504 ms
Writing library : LAME3.98r
Encoding settings : CBR

Список серий

Эпизод 01 - (0:43:18) - Повесть о двух городах /A Tale Of Two Cities
Эпизод 02 - (0:43:17) - Стеклянная балерина /The Glass Ballerina
Эпизод 03 - (0:42:05) - Дальнейшие указания / Further Instructions
Эпизод 04 - (0:43:18) - Каждый за себя /Every Man for Himself
Эпизод 05 - (0:43:18) - Цена жизни / The Cost of Living
Эпизод 06 - (0:43:11) - Я согласна / I DO
Эпизод 07 - (0:43:19) - Не в Портленде / Not in Portland
Эпизод 08 - (0:43:13) - Видения / Flashes Before Your Eyes
Эпизод 09 - (0:43:14) - Чужой среди чужих / Stranger in a Strange Land
Эпизод 10 - (0:43:11) - Триша Танака умерла / Tricia Tanaka Is Dead)
Эпизод 11 - (0:43:06) - Введите 77 / Enter 77
Эпизод 12 - (0:43:06) - Авиапочта / Par Avion
Эпизод 13 - (0:43:15) - Человек из Таллахасси / The Man from Tallahassee
Эпизод 14 - (0:42:31) - Голая правда / Expose
Эпизод 15 - (0:43:11) - Брошенные / Left Behind
Эпизод 16 - (0:43:14) - Одна из нас / One of Us
Эпизод 17 - (0:42:18) - Безвыходное положение / Catch-22
Эпизод 18 - (0:43:11) - Дата зачатия / D.O.C.
Эпизод 19 - (0:43:15) - Гауптвахта / The Brig
Эпизод 20 - (0:43:12) - Человек за ширмой / The Man Behind the Curtain
Эпизод 21 - (0:43:14) - Избранное / Greatest Hits
Эпизод 22 - (0:43:09) - В Зазеркалье. Часть 1 / Through the Looking Glass. Part 1
Эпизод 23 - (0:43:14) - В Зазеркалье. Часть 2 / Through the Looking Glass. Part 2
Вы не можете начинать темы
Вы не можете отвечать на сообщения
Вы не можете редактировать свои сообщения
Вы не можете удалять свои сообщения
Вы не можете голосовать в опросах
Вы не можете прикреплять файлы к сообщениям
Вы можете скачивать файлы
!ВНИМАНИЕ!

Сайт не предоставляет электронные версии произведений, а занимается лишь коллекционированием и каталогизацией ссылок, присылаемых и публикуемых на форуме нашими читателями. Если вы являетесь правообладателем какого-либо представленного материала и не желаете, чтобы ссылка на него находилась в нашем каталоге, свяжитесь с нами, и мы незамедлительно удалим ее. Файлы для обмена на трекере предоставлены пользователями сайта, и администрация не несет ответственности за их содержание. Просьба не заливать файлы, защищенные авторскими правами, а также файлы нелегального содержания!

Искали программы, игры, дополнения, музыка mp3, аниме, аудио книги, журналы? Добро пожаловать на свободный торрент трекер Torrents, у нас можно скачать бесплатно, без смс и регистрации и прочих ограничений лучшие, отборные сборки программ, игр. Скачать торрентом не составит труда даже не опытному пользователю. Раздачи ежедневно обновляются, только лучшие и качественные раздачи, подробные описания и скриншоты. Огромная коллекция программ для работы со звуком, графикой, дизайном, а так же множество плагинов и инструментов к ним с подробной инструкцией и рекомендациями. Прошивки для навигаторов, карты. Разнообразные игры, для Windows, Linux. В коллекцие есть и старые игры любых жанров, Rpg, Action, Shooter, strategy Множество дополнений, модификаций, сценариев для популярных игр в жанре экш, рпг, гонки, стратегии, логические игры. Множество аддонов и сценариев для Microsoft Flight Simulator Большая коллекция книг, учебников. Если нет возможности купить печатное издание - смело скачивайте цифровую версию книги или, быть может, журнала. Не любите читать - можно загрузить бесплатно аудикнигу. Для веб дизайнеров и программистов так же найдется множество специализированного софта, таких как: редакторы с подсветкой, среды программирования, компоненты, системы управления базами данных, разнообразные скрипты и шаблоны. Не так давно у нас появился материал для автолюбителей и владельцев мото - оригинальные и неоригинальные каталоги запчастей, книги и журналы по ремонту и обслуживанию, видеоуроки, статьи по чип тюнингу, прошивкам. Процедура получения контента элементарная, достаточно просто скачать торрент файл и добавить его в загрузку в вашем торрент клиенте. Если у вас нет специального торрент клиента, вы можете его скачать у нас.