62.Коломбо: Все поставлено на карту / Columbo: It\'s All in the Game (Винсент МакЭвети) [1993, Психологический детектив, DVD5] 

Цитировать
62.Коломбо: Все поставлено на карту / Columbo: It's All in the Game
Год выпуска: 1993
Страна: USA
Жанр: Психологический детектив
Сценарий: Питер Фальк
Оператор: Джордж Кобласа
Композитор: Дюк Де Бенедиктис
Продолжительность: 01:31:02
Перевод: Профессиональный (двухголосый)
Субтитры: французские
Режиссер: Винсент МакЭвети (Vincent McEveety)
В ролях: Питер Фальк, Фэй Данауэй, Клаудиа Кристиан, Армандо Пуччи, Билл Маки, Джон Финеган, Дуг Шихан
Описание: Убит молодой ловелас. Его убийцы мать и ее взрослая дочка, за которыми "пострадавший"
активно ухаживал. Чтобы помешать Коломбо распутать это дело, мать пытается его соблазнить.
Релиз из коллекции Vikkara
DVD выпущен во Франции.
Картинки в меню с французского переделаны на английский язык. (Благодарности zhbanochek'у.)
Французская звуковая дорожка заменена на русскую.
Каждый DVD-9 разбит на два DVD-5
Качество: DVD5
Формат: DVD Video
Видео кодек: MPEG2
Аудио кодек: AC3
Видео: Dolby AC3 48000Hz 6ch 192kbps [AC-3]
Аудио: MPEG2 Video 720x576 (4:3) 25.00fps 6800kbps [Video]
MediaInfo
Format : MPEG-PS
File size : 1 024 MiB
Duration : 25mn 33s
Overall bit rate : 5 600 Kbps
Video
ID : 224 (0xE0)
Format : MPEG Video
Format version : Version 2
Format profile : Main@Main
Format settings, Matrix : Default
Duration : 25mn 33s
Bit rate mode : Variable
Bit rate : 4 802 Kbps
Nominal bit rate : 6 800 Kbps
Width : 720 pixels
Height : 576 pixels
Display aspect ratio : 4:3
Frame rate : 25.000 fps
Standard : PAL
Colorimetry : 4:2:0
Scan type : Interlaced
Scan order : Bottom Field First
Bits/(Pixel*Frame) : 0.463
Stream size : 878 MiB (86%)
Audio #1
ID : 128 (0x80)
Format : AC-3
Format/Info : Audio Coding 3
Duration : 25mn 33s
Bit rate mode : Constant
Bit rate : 192 Kbps
Channel(s) : 2 channels
Channel positions : L R
Sampling rate : 48.0 KHz
Stream size : 35.1 MiB (3%)
Audio #2
ID : 129 (0x81)
Format : AC-3
Format/Info : Audio Coding 3
Duration : 25mn 33s
Bit rate mode : Constant
Bit rate : 384 Kbps
Channel(s) : 2 channels
Channel positions : L R
Sampling rate : 48.0 KHz
Stream size : 70.2 MiB (7%)
Text
ID : 33 (0x21)
Format : RLE
Format/Info : Run-length encoding
Menu

Скриншоты

Вы не можете начинать темы
Вы не можете отвечать на сообщения
Вы не можете редактировать свои сообщения
Вы не можете удалять свои сообщения
Вы не можете голосовать в опросах
Вы не можете прикреплять файлы к сообщениям
Вы можете скачивать файлы
!ВНИМАНИЕ!

Сайт не предоставляет электронные версии произведений, а занимается лишь коллекционированием и каталогизацией ссылок, присылаемых и публикуемых на форуме нашими читателями. Если вы являетесь правообладателем какого-либо представленного материала и не желаете, чтобы ссылка на него находилась в нашем каталоге, свяжитесь с нами, и мы незамедлительно удалим ее. Файлы для обмена на трекере предоставлены пользователями сайта, и администрация не несет ответственности за их содержание. Просьба не заливать файлы, защищенные авторскими правами, а также файлы нелегального содержания!

Искали программы, игры, дополнения, музыка mp3, аниме, аудио книги, журналы? Добро пожаловать на свободный торрент трекер Torrents, у нас можно скачать бесплатно, без смс и регистрации и прочих ограничений лучшие, отборные сборки программ, игр. Скачать торрентом не составит труда даже не опытному пользователю. Раздачи ежедневно обновляются, только лучшие и качественные раздачи, подробные описания и скриншоты. Огромная коллекция программ для работы со звуком, графикой, дизайном, а так же множество плагинов и инструментов к ним с подробной инструкцией и рекомендациями. Прошивки для навигаторов, карты. Разнообразные игры, для Windows, Linux. В коллекцие есть и старые игры любых жанров, Rpg, Action, Shooter, strategy Множество дополнений, модификаций, сценариев для популярных игр в жанре экш, рпг, гонки, стратегии, логические игры. Множество аддонов и сценариев для Microsoft Flight Simulator Большая коллекция книг, учебников. Если нет возможности купить печатное издание - смело скачивайте цифровую версию книги или, быть может, журнала. Не любите читать - можно загрузить бесплатно аудикнигу. Для веб дизайнеров и программистов так же найдется множество специализированного софта, таких как: редакторы с подсветкой, среды программирования, компоненты, системы управления базами данных, разнообразные скрипты и шаблоны. Не так давно у нас появился материал для автолюбителей и владельцев мото - оригинальные и неоригинальные каталоги запчастей, книги и журналы по ремонту и обслуживанию, видеоуроки, статьи по чип тюнингу, прошивкам. Процедура получения контента элементарная, достаточно просто скачать торрент файл и добавить его в загрузку в вашем торрент клиенте. Если у вас нет специального торрент клиента, вы можете его скачать у нас.