Право на жизнь 3 / Светлое будущее 3: Любовь и смерть в Сайгоне / Ying hung boon sik III: Zik yeung ji gor (Цуй Харк / Tsui Hark) [1989, Гонконг, драма, боевик, VHSRip-AVC] [Fullscreen] DVO (Ракурс по заказу Екатеринбург Арт) 

Цитировать
Право на жизнь / Светлое будущее 3: Любовь и смерть в Сайгоне / Ying hung boon sik III: Zik yeung ji gor / Fullscreen
Страна: Гонконг
Жанр: драма, боевик
Год выпуска: 1989
Продолжительность: 01:54:11
Перевод: Профессиональный (двухголосый закадровый) Ракурс по заказу Екатеринбург Арт
Субтитры: нет
Оригинальная аудиодорожка: нет
Режиссер: Цуй Харк / Tsui Hark
В ролях: Чоу Юнь-Фат, Тони Люн Ка-фай, Анита Муи, Кьень Ши, Сабуро Токито, Мэгги Чхён, Чи Вэй Вонг, Кирк Вонг, Вэй Во То, Чи-Мун Хо...
Описание: В третьем фильме за светлое будущее для себя, а не для народа борются два двоюродных брата. Действие начинается во Вьетнаме в конце войны с американцами. В Китае идет культурная революция. В Камбодже война. В эти смутные времена наши герои занимаются преступностью, сея горы трупов под руководством роковой красавицы.
Доп. информация: Оцифровка пиратской VHS с копией лицензии от ЕА. Из собственной коллекции.
Fullscreen!
Данный перевод в Рунете впервые!

Сэмпл: http://sendfile.su/1355100
Качество видео: VHSRip-AVC
Формат видео: MP4
Видео: AVC, 720х576, 5:4, 25,000 кадров/сек, 3000 Кбит/сек
Аудио: AAC, 64,0 КГц, 192 Кбит/сек, 2.0

MediaInfo

General
Complete name : K:\torrents\Ying hung boon sik III Zik yeung ji gor\Ying hung boon sik III Zik yeung ji gor.mp4
Format : MPEG-4
Format profile : Base Media
Codec ID : isom (isom/iso2/avc1/mp41)
File size : 2.55 GiB
Duration : 1 h 54 min
Overall bit rate : 3 196 kb/s
Writing application : Lavf57.25.100
Video
ID : 1
Format : AVC
Format/Info : Advanced Video Codec
Format profile : Baseline@L3
Format settings, CABAC : No
Format settings, RefFrames : 1 frame
Format settings, GOP : M=1, N=50
Codec ID : avc1
Codec ID/Info : Advanced Video Coding
Duration : 1 h 54 min
Bit rate : 3 000 kb/s
Width : 720 pixels
Height : 576 pixels
Display aspect ratio : 5:4
Frame rate mode : Constant
Frame rate : 25.000 FPS
Standard : PAL
Color space : YUV
Chroma subsampling : 4:2:0
Bit depth : 8 bits
Scan type : Progressive
Bits/(Pixel*Frame) : 0.289
Stream size : 2.39 GiB (94%)
Audio
ID : 2
Format : AAC
Format/Info : Advanced Audio Codec
Format profile : LTP
Codec ID : 40
Duration : 1 h 54 min
Bit rate mode : Constant
Bit rate : 192 kb/s
Channel(s) : 2 channels
Channel(s)_Original : 3 channels
Channel positions : Front: L C R
Sampling rate : 64.0 kHz
Frame rate : 62.500 FPS (1024 SPF)
Compression mode : Lossy
Stream size : 155 MiB (6%)
Default : Yes
Alternate group : 1

Скриншот c названием фильма

Вы не можете начинать темы
Вы не можете отвечать на сообщения
Вы не можете редактировать свои сообщения
Вы не можете удалять свои сообщения
Вы не можете голосовать в опросах
Вы не можете прикреплять файлы к сообщениям
Вы можете скачивать файлы
!ВНИМАНИЕ!

Сайт не предоставляет электронные версии произведений, а занимается лишь коллекционированием и каталогизацией ссылок, присылаемых и публикуемых на форуме нашими читателями. Если вы являетесь правообладателем какого-либо представленного материала и не желаете, чтобы ссылка на него находилась в нашем каталоге, свяжитесь с нами, и мы незамедлительно удалим ее. Файлы для обмена на трекере предоставлены пользователями сайта, и администрация не несет ответственности за их содержание. Просьба не заливать файлы, защищенные авторскими правами, а также файлы нелегального содержания!

Искали программы, игры, дополнения, музыка mp3, аниме, аудио книги, журналы? Добро пожаловать на свободный торрент трекер Torrents, у нас можно скачать бесплатно, без смс и регистрации и прочих ограничений лучшие, отборные сборки программ, игр. Скачать торрентом не составит труда даже не опытному пользователю. Раздачи ежедневно обновляются, только лучшие и качественные раздачи, подробные описания и скриншоты. Огромная коллекция программ для работы со звуком, графикой, дизайном, а так же множество плагинов и инструментов к ним с подробной инструкцией и рекомендациями. Прошивки для навигаторов, карты. Разнообразные игры, для Windows, Linux. В коллекцие есть и старые игры любых жанров, Rpg, Action, Shooter, strategy Множество дополнений, модификаций, сценариев для популярных игр в жанре экш, рпг, гонки, стратегии, логические игры. Множество аддонов и сценариев для Microsoft Flight Simulator Большая коллекция книг, учебников. Если нет возможности купить печатное издание - смело скачивайте цифровую версию книги или, быть может, журнала. Не любите читать - можно загрузить бесплатно аудикнигу. Для веб дизайнеров и программистов так же найдется множество специализированного софта, таких как: редакторы с подсветкой, среды программирования, компоненты, системы управления базами данных, разнообразные скрипты и шаблоны. Не так давно у нас появился материал для автолюбителей и владельцев мото - оригинальные и неоригинальные каталоги запчастей, книги и журналы по ремонту и обслуживанию, видеоуроки, статьи по чип тюнингу, прошивкам. Процедура получения контента элементарная, достаточно просто скачать торрент файл и добавить его в загрузку в вашем торрент клиенте. Если у вас нет специального торрент клиента, вы можете его скачать у нас.