Маршал из Ада / Одержимый Дьяволом / Маршал Ада / El Mariscal del infierno (Los poseídos de Satán) (Леон Климовски / León Klimovsky) [1974, Испания, Аргентина, исторический, драма, DVDRip] VO (Andi) + VO (Колобок) + Original Spa + Sub 

Цитировать
Маршал из Ада / Одержимый Дьяволом / Маршал Ада / El Mariscal del infierno (Los poseídos de Satán)
Страна: Испания, Аргентина
Жанр: исторический, драма
Год выпуска: 1974
Продолжительность: 01:25:03
Перевод: Любительский одноголосый (Озвучка: Andi)
Перевод: Любительский одноголосый (Студия "Колобок")
Субтитры: 1) русские - petpav 2) французский 3) венгерский
Оригинальная аудиодорожка: испанский
Режиссер: Леон Климовски / León Klimovsky
В ролях: Пауль Наши (Поль Начи), Гильермо Бредестон, Мариано Видаль Молина, Норма Себре, Грасиела Нильсон, Эдуардо Кальво
Описание: Франция первой половины 15 века. Годы Столетней войны. Маршал Франции барон Жиль де Ланкре, прославившийся в битвах с англичанами, возвращается в родовой замок, раздосадованный холодным приемом у короля. Озлобленный на всех, барон решает, воспользовавшись знаниями в магии и колдовстве приглашенного в замок известного алхимика, который обещает маршалу найти «философский камень», получить бессмертие и узурпировать трон Франции…
Доп. информация: В основе сценария фильма – беллетризованная история злодеяний реально существовавшего человека - маршала Франции, сподвижника Жанны д`Арк, алхимика Жиля де Рэ (1404 – 1440), казненного по обвинению в убийствах и поклонению дьяволу.
Рип Lem взят с kinozal. Русские сабы от petpav
Сэмпл: http://yadi.sk/i/waXfSOzi3Lyt86
Качество видео: DVDRip
Формат видео: AVI
Видео: XVID, 720x528 (4:3), 25.000 fps, 2 048 Kbps
Аудио 1: Русский (Andi) - AC3 128 kb/s (L R) 44.1 kHz
Аудио 2: Русский (Студия "Колобок") - AC3 256 kb/s (L R) 48.0 kHz
Аудио 3: Испанский - AC3 192 kb/s (L R) 48.0 kHz
Формат субтитров: softsub (SRT)
Образец субтитров1
00:00:13,480 --> 00:00:17,478
МАРШАЛ АДА
2
00:01:36,280 --> 00:01:38,610
Госпожа, маршал вернулся.
3
00:02:46,300 --> 00:02:49,560
Сир, вы не знаете,
как я тревожилась за вас,
ждала вашего возвращения.
4
00:02:51,110 --> 00:02:52,780
Как у вас получилось?
5
00:03:05,660 --> 00:03:07,690
Король отказал мне в кредите,
6
00:03:08,350 --> 00:03:10,690
плохо отнеслись,
7
00:03:11,320 --> 00:03:13,120
ничего не получил.
8
00:03:13,160 --> 00:03:15,530
При дворе никто не помнит
мою службу короне
9
00:03:15,550 --> 00:03:17,020
и мои победы на полях битв.
10
00:03:17,040 --> 00:03:18,640
Что вы намерены делать?

MediaInfo

Complete name : Маршал из Ада (Одержимый Дьяволом) 1974.avi
Format : AVI
Format/Info : Audio Video Interleave
File size : 1.57 GiB
Duration : 1 h 25 min
Overall bit rate : 2 643 kb/s
Writing application : VirtualDubModRus 1.5.10.2 (build 2542/release)
Writing library : VirtualDubMod build 2542/release
Video
ID : 0
Format : MPEG-4 Visual
Format profile : Advanced Simple@L5
Format settings, BVOP : 2
Format settings, QPel : No
Format settings, GMC : No warppoints
Format settings, Matrix : Default (MPEG)
Codec ID : XVID
Codec ID/Hint : XviD
Duration : 1 h 25 min
Bit rate : 2 048 kb/s
Width : 720 pixels
Height : 528 pixels
Display aspect ratio : 4:3
Frame rate : 25.000 FPS
Color space : YUV
Chroma subsampling : 4:2:0
Bit depth : 8 bits
Scan type : Progressive
Compression mode : Lossy
Bits/(Pixel*Frame) : 0.215
Stream size : 1.22 GiB (77%)
Writing library : XviD 73
Audio #1
ID : 1
Format : AC-3
Format/Info : Audio Coding 3
Format settings, Endianness : Big
Codec ID : 2000
Duration : 1 h 25 min
Bit rate mode : Constant
Bit rate : 128 kb/s
Channel(s) : 2 channels
Channel positions : Front: L R
Sampling rate : 44.1 kHz
Frame rate : 28.711 FPS (1536 SPF)
Bit depth : 16 bits
Compression mode : Lossy
Stream size : 77.9 MiB (5%)
Alignment : Split accross interleaves
Interleave, duration : 40 ms (1.00 video frame)
Interleave, preload duratio : 500 ms
Service kind : Complete Main
Audio #2
ID : 2
Format : AC-3
Format/Info : Audio Coding 3
Format settings, Endianness : Big
Codec ID : 2000
Duration : 1 h 25 min
Bit rate mode : Constant
Bit rate : 256 kb/s
Channel(s) : 2 channels
Channel positions : Front: L R
Sampling rate : 48.0 kHz
Frame rate : 31.250 FPS (1536 SPF)
Bit depth : 16 bits
Compression mode : Lossy
Stream size : 156 MiB (10%)
Alignment : Aligned on interleaves
Interleave, duration : 40 ms (1.00 video frame)
Interleave, preload duratio : 512 ms
Service kind : Complete Main
Audio #3
ID : 3
Format : AC-3
Format/Info : Audio Coding 3
Format settings, Endianness : Big
Codec ID : 2000
Duration : 1 h 25 min
Bit rate mode : Constant
Bit rate : 192 kb/s
Channel(s) : 2 channels
Channel positions : Front: L R
Sampling rate : 48.0 kHz
Frame rate : 31.250 FPS (1536 SPF)
Bit depth : 16 bits
Compression mode : Lossy
Stream size : 117 MiB (7%)
Alignment : Split accross interleaves
Interleave, duration : 40 ms (1.00 video frame)
Interleave, preload duratio : 500 ms
Service kind : Complete Main

Скриншот c названием фильма

Ссылки на мои файлы http://rutracker.org/forum/search.php?uid=18026582&myt=1
Вы не можете начинать темы
Вы не можете отвечать на сообщения
Вы не можете редактировать свои сообщения
Вы не можете удалять свои сообщения
Вы не можете голосовать в опросах
Вы не можете прикреплять файлы к сообщениям
Вы можете скачивать файлы
!ВНИМАНИЕ!

Сайт не предоставляет электронные версии произведений, а занимается лишь коллекционированием и каталогизацией ссылок, присылаемых и публикуемых на форуме нашими читателями. Если вы являетесь правообладателем какого-либо представленного материала и не желаете, чтобы ссылка на него находилась в нашем каталоге, свяжитесь с нами, и мы незамедлительно удалим ее. Файлы для обмена на трекере предоставлены пользователями сайта, и администрация не несет ответственности за их содержание. Просьба не заливать файлы, защищенные авторскими правами, а также файлы нелегального содержания!

Искали программы, игры, дополнения, музыка mp3, аниме, аудио книги, журналы? Добро пожаловать на свободный торрент трекер Torrents, у нас можно скачать бесплатно, без смс и регистрации и прочих ограничений лучшие, отборные сборки программ, игр. Скачать торрентом не составит труда даже не опытному пользователю. Раздачи ежедневно обновляются, только лучшие и качественные раздачи, подробные описания и скриншоты. Огромная коллекция программ для работы со звуком, графикой, дизайном, а так же множество плагинов и инструментов к ним с подробной инструкцией и рекомендациями. Прошивки для навигаторов, карты. Разнообразные игры, для Windows, Linux. В коллекцие есть и старые игры любых жанров, Rpg, Action, Shooter, strategy Множество дополнений, модификаций, сценариев для популярных игр в жанре экш, рпг, гонки, стратегии, логические игры. Множество аддонов и сценариев для Microsoft Flight Simulator Большая коллекция книг, учебников. Если нет возможности купить печатное издание - смело скачивайте цифровую версию книги или, быть может, журнала. Не любите читать - можно загрузить бесплатно аудикнигу. Для веб дизайнеров и программистов так же найдется множество специализированного софта, таких как: редакторы с подсветкой, среды программирования, компоненты, системы управления базами данных, разнообразные скрипты и шаблоны. Не так давно у нас появился материал для автолюбителей и владельцев мото - оригинальные и неоригинальные каталоги запчастей, книги и журналы по ремонту и обслуживанию, видеоуроки, статьи по чип тюнингу, прошивкам. Процедура получения контента элементарная, достаточно просто скачать торрент файл и добавить его в загрузку в вашем торрент клиенте. Если у вас нет специального торрент клиента, вы можете его скачать у нас.