Чужие / Aliens (Джеймс Кэмерон /James Cameron) [1986, США, Фантастика, LDRip] [Fullscreen] MVO (Премьер Видео Фильм) + AVO (Алексей Михалев) + Original Eng 

Цитировать
Чужие / Aliens
Страна: США
Жанр: Фантастика
Год выпуска: 1986
Продолжительность: 02:11:47
Перевод: Профессиональный (многоголосый закадровый) Премьер Видео Фильм
Перевод 2: Авторский (одноголосый закадровый) Алексей Михалев
Субтитры: нет
Оригинальная аудиодорожка: английский
Режиссер: Джеймс Кэмерон /James Cameron
В ролях: Сигурни Уивер /Sigourney Weaver/, Кэрри Хенн /Carrie Henn/, Майкл Бьен /Michael Biehn/, Пол Райзер /Paul Reiser/, Билл Пэкстон /Bill Paxton/, Лэнс Хенриксен /Lance Henriksen/, Эл Мэттьюз /Al Matthews/, Джинетт Голдштайн /Jenette Goldstein/, Уильям Хоуп /William Hope/, Марк Ролстон /Mark Rolston/
Описание: Описание №1: Фильм-продолжение "Чужого" Ридли Скотта поставлен Джеймсом Кэмероном по сюжету Кэмерона, Дэвида Джайлера и Уолтера Хилла с использованием персонажей, созданных Дэном О Бэнноном и Роналдом Шасеттом, в той же хлесткой, бъющей по нервам манере, что и "Терминатор". Офицер Рипли (Уивер), единственная из команды звездолета "Ностромо" оставшаяся в живых после встречи с агрессивными инопланетянами, возвращается на планету чудовищ с боевым отрядом, чтобы уничтожить их. Фильм был выдвинут на "Оскара" по пяти номинациям и получил "Оскары" за визуальные спецэффекты, и монтаж звуковых спецэффектов (Дон Шарп). (Иванов М.)
Описание №2: В этот раз, это война…
Чужой – совершенный организм. Идеальная машина для убийства, чье физическое превосходство сочетается с его феноменальной жаждой уничтожения.
Офицер Элен Рипли и команда космического корабля Ностромо один раз уже встретилась с такой тварью. В живых осталась только Элен. После многих лет блуждания в космосе, спасательную капсулу с Элен находят спасатели. Ей сообщают, что планета L.V. 426 колонизирована и ей придется вернуться туда, где начался ее кошмар, ибо связь с колонистами прервалась. И вот в составе группы космического десанта Рипли отправляется проклятую планету. Но теперь их там поджидает не один Чужой, а тысячи.
Кто сможет выжить в этой войне: чудовища, способные только убивать, или люди, способные мыслить?
Доп. информация: Исключительно для ознакомления. Копия с так называемым "плавающим кропом". Выходила на видеокассетах и лазерных дисках в Великобритании.
Сравнение с TV-Open Matte : http://screenshotcomparison.com/comparison/115672
Сравнение с DVD (Квадрилогия : Режиссёрские версии, "Позитив Мультимедиа"): http://screenshotcomparison.com/comparison/115674
Сравнение с BD-Rip (http://rutracker.org/forum/viewtopic.php?t=5241711) : http://screenshotcomparison.com/comparison/115882
Диски "подгнили", из-за чего изображение и оригинальный звук с дефектами.
Все исходные материалы предоставлены пользователем Evil ED 86. Все вопросы, по размещению данного материала в соседних ветках данного форума и/или на других трекерах, направлять пользователю Evil ED 86.
Сэмпл: http://multi-up.com/1166124
Качество видео: LDRip
Формат видео: MPEG
Видео: MPG, 720x576, 25 fps, ~8.040 Kbps
Аудио: AC3, 48 KHz, 256 KBps, 2.0, English
Аудио 2: AC3, 48 KHz, 192 KBps, 2.0, Премьер Видео Фильм
Аудио 3: AC3, 48 KHz, 192 KBps, 2.0, А. Михалёв

MediaInfo

eneral
Complete name : D:\Aliens UK LD вторая оцифровка\Aliens-LD-UK-Final.mpg
Format : MPEG-PS
File size : 8.13 GiB
Duration : 2h 11mn
Overall bit rate : 8 835 Kbps
Video
ID : 224 (0xE0)
Format : MPEG Video
Format version : Version 2
Format profile : Main@Main
Format settings, BVOP : Yes
Format settings, Matrix : Custom
Format settings, GOP : M=3, N=12
Duration : 2h 11mn
Bit rate : 8 040 Kbps
Width : 720 pixels
Height : 576 pixels
Display aspect ratio : 4:3
Frame rate : 25.000 fps
Standard : PAL
Color space : YUV
Chroma subsampling : 4:2:0
Bit depth : 8 bits
Scan type : Interlaced
Scan order : Top Field First
Compression mode : Lossy
Bits/(Pixel*Frame) : 0.775
Time code of first frame : 00:00:00:00
Time code source : Group of pictures header
Stream size : 7.38 GiB (91%)
Audio #1
ID : 189 (0xBD)-128 (0x80)
Format : AC-3
Format/Info : Audio Coding 3
Mode extension : CM (complete main)
Format settings, Endianness : Big
Muxing mode : DVD-Video
Duration : 2h 11mn
Bit rate mode : Constant
Bit rate : 256 Kbps
Channel(s) : 2 channels
Channel positions : Front: L R
Sampling rate : 48.0 KHz
Bit depth : 16 bits
Compression mode : Lossy
Stream size : 241 MiB (3%)
Audio #2
ID : 189 (0xBD)-129 (0x81)
Format : AC-3
Format/Info : Audio Coding 3
Mode extension : CM (complete main)
Format settings, Endianness : Big
Muxing mode : DVD-Video
Duration : 2h 11mn
Bit rate mode : Constant
Bit rate : 192 Kbps
Channel(s) : 2 channels
Channel positions : Front: L R
Sampling rate : 48.0 KHz
Bit depth : 16 bits
Compression mode : Lossy
Stream size : 181 MiB (2%)
Audio #3
ID : 189 (0xBD)-130 (0x82)
Format : AC-3
Format/Info : Audio Coding 3
Mode extension : CM (complete main)
Format settings, Endianness : Big
Muxing mode : DVD-Video
Duration : 2h 11mn
Bit rate mode : Constant
Bit rate : 192 Kbps
Channel(s) : 2 channels
Channel positions : Front: L R
Sampling rate : 48.0 KHz
Bit depth : 16 bits
Compression mode : Lossy
Stream size : 181 MiB (2%)

Скриншот c названием фильма

Вы не можете начинать темы
Вы не можете отвечать на сообщения
Вы не можете редактировать свои сообщения
Вы не можете удалять свои сообщения
Вы не можете голосовать в опросах
Вы не можете прикреплять файлы к сообщениям
Вы можете скачивать файлы
!ВНИМАНИЕ!

Сайт не предоставляет электронные версии произведений, а занимается лишь коллекционированием и каталогизацией ссылок, присылаемых и публикуемых на форуме нашими читателями. Если вы являетесь правообладателем какого-либо представленного материала и не желаете, чтобы ссылка на него находилась в нашем каталоге, свяжитесь с нами, и мы незамедлительно удалим ее. Файлы для обмена на трекере предоставлены пользователями сайта, и администрация не несет ответственности за их содержание. Просьба не заливать файлы, защищенные авторскими правами, а также файлы нелегального содержания!

Искали программы, игры, дополнения, музыка mp3, аниме, аудио книги, журналы? Добро пожаловать на свободный торрент трекер Torrents, у нас можно скачать бесплатно, без смс и регистрации и прочих ограничений лучшие, отборные сборки программ, игр. Скачать торрентом не составит труда даже не опытному пользователю. Раздачи ежедневно обновляются, только лучшие и качественные раздачи, подробные описания и скриншоты. Огромная коллекция программ для работы со звуком, графикой, дизайном, а так же множество плагинов и инструментов к ним с подробной инструкцией и рекомендациями. Прошивки для навигаторов, карты. Разнообразные игры, для Windows, Linux. В коллекцие есть и старые игры любых жанров, Rpg, Action, Shooter, strategy Множество дополнений, модификаций, сценариев для популярных игр в жанре экш, рпг, гонки, стратегии, логические игры. Множество аддонов и сценариев для Microsoft Flight Simulator Большая коллекция книг, учебников. Если нет возможности купить печатное издание - смело скачивайте цифровую версию книги или, быть может, журнала. Не любите читать - можно загрузить бесплатно аудикнигу. Для веб дизайнеров и программистов так же найдется множество специализированного софта, таких как: редакторы с подсветкой, среды программирования, компоненты, системы управления базами данных, разнообразные скрипты и шаблоны. Не так давно у нас появился материал для автолюбителей и владельцев мото - оригинальные и неоригинальные каталоги запчастей, книги и журналы по ремонту и обслуживанию, видеоуроки, статьи по чип тюнингу, прошивкам. Процедура получения контента элементарная, достаточно просто скачать торрент файл и добавить его в загрузку в вашем торрент клиенте. Если у вас нет специального торрент клиента, вы можете его скачать у нас.