Три миллиарда без лифта / Trois milliards sans ascenseur (Роже Пиго / Roger Pigaut) [1972, Италия, Франция, комедия, криминал, DVDRip] Sub Rus (Антон Каптелов) + Original Fre 

Цитировать
Три миллиарда без лифта / Trois milliards sans ascenseur Страна: Италия, Франция
Жанр: комедия, криминал
Год выпуска: 1972
Продолжительность: 01:31:44
Перевод: Субтитры Антон Каптелов
Субтитры: русские
Оригинальная аудиодорожка: французский
Режиссер: Роже Пиго / Roger Pigaut
В ролях: Мишель Буке, Дани Каррель, Марсель Боззюффи, Серж Реджани, Виктор Лану, Бернар Фрессон, Франсуаза Розе, Амиду, Нике Арриги, Марсель Гассук
Описание: Компания старинных приятелей-неудачников решается на опасную авантюру - ограбление Международной ювелирной выставки.
Сэмпл: http://multi-up.com/1165877
Качество видео: DVDRip (рип скачан с Карагарги)
Формат видео: AVI
Видео: 608x352 (1.73:1), 25 fps, XviD build 50 ~1206 kbps avg, 0.23 bit/pixel
Аудио: 48 kHz, AC3 Dolby Digital, 2/0 (L,R) ch, ~192 kbps
Формат субтитров: softsub (SRT)
Релиз:

MediaInfo

Формат : AVI
Формат/Информация : Audio Video Interleave
Размер файла : 924 Мбайт
Продолжительность : 1 ч. 31 м.
Общий поток : 1408 Кбит/сек
Видео
Идентификатор : 0
Формат : MPEG-4 Visual
Профиль формата : Advanced Simple@L5
Параметр BVOP формата : 2
Параметр QPel формата : Нет
Параметр GMC формата : Без точки перехода
Параметр матрицы формата : Default (H.263)
Идентификатор кодека : XVID
Идентификатор кодека/Подсказка : XviD
Продолжительность : 1 ч. 31 м.
Битрейт : 1206 Кбит/сек
Ширина : 608 пикселей
Высота : 352 пикселя
Соотношение сторон : 1,727
Частота кадров : 25,000 кадров/сек
Цветовое пространство : YUV
Субдискретизация насыщенности : 4:2:0
Битовая глубина : 8 бит
Тип развёртки : Прогрессивная
Метод сжатия : С потерями
Бит/(Пиксели*Кадры) : 0.225
Размер потока : 792 Мбайт (86%)
Библиотека кодирования : XviD 1.2.1 (UTC 2008-12-04)
Аудио
Идентификатор : 1
Формат : AC-3
Формат/Информация : Audio Coding 3
Расширение режима : CM (complete main)
Параметр Endianness формата : Big
Идентификатор кодека : 2000
Продолжительность : 1 ч. 31 м.
Вид битрейта : Постоянный
Битрейт : 192 Кбит/сек
Каналы : 2 канала
Расположение каналов : Front: L R
Частота : 48,0 КГц
Частота кадров : 31,250 кадров/сек (1536 spf)
Метод сжатия : С потерями
Размер потока : 126 Мбайт (14%)
Выравнивание : Соединение по промежуткам
Продолжительность промежутка : 40 мс. (1,00 видеокадр)
Время предзагрузки промежутка : 512 мс.

Скриншот c названием фильма

Пример субтитров

1
00:00:03,960 --> 00:00:05,333
Дерьмо!
2
00:00:07,331 --> 00:00:08,762
Что, незадача?
3
00:00:09,125 --> 00:00:10,881
Ох, что за бестолочь этот Жюльен
и его дерьмовый автомобиль!
4
00:00:11,140 --> 00:00:12,774
Остынь! У него же есть запаска.
5
00:00:12,993 --> 00:00:15,969
Нет, он просто решил меня поиметь.
6
00:00:16,276 --> 00:00:17,710
Ну, вот!
7
00:00:20,121 --> 00:00:22,576
Однажды я хорошенько с ним разберусь!
8
00:00:22,740 --> 00:00:24,415
А тебя разве не ждут друзья?
9
00:00:24,584 --> 00:00:26,663
Им же лучше - избавил их от забот!
10
00:00:26,936 --> 00:00:28,812
Три тонны американских
кожаных курток!
11
00:00:28,928 --> 00:00:31,226
И ты загрузил ими меня.
12
00:00:31,454 --> 00:00:34,499
- Ну, вдвоем мы справимся быстрее, так?
- Да!
13
00:00:35,706 --> 00:00:39,123
- Вдвоем мы справимся быстрее.
- Ну, так вот!
14
00:00:39,643 --> 00:00:41,179
Что есть, то есть!
15
00:00:49,351 --> 00:00:51,818
Поторопись!
Я имею в виду...
16
00:00:52,734 --> 00:00:54,215
Проклятье!
17
00:01:00,648 --> 00:01:02,528
Что это за дерьмо?
18
00:01:04,075 --> 00:01:06,221
- Оставь!
- Почему?
19
00:01:06,975 --> 00:01:08,542
Потому что не твоего ума дело!
20
00:01:08,904 --> 00:01:12,452
Мне не нравится твой тон, Пауло!
Ты мне яйца крутишь!
Огромное спасибо Антону Каптелову за перевод фильма!
Вы не можете начинать темы
Вы не можете отвечать на сообщения
Вы не можете редактировать свои сообщения
Вы не можете удалять свои сообщения
Вы не можете голосовать в опросах
Вы не можете прикреплять файлы к сообщениям
Вы можете скачивать файлы
!ВНИМАНИЕ!

Сайт не предоставляет электронные версии произведений, а занимается лишь коллекционированием и каталогизацией ссылок, присылаемых и публикуемых на форуме нашими читателями. Если вы являетесь правообладателем какого-либо представленного материала и не желаете, чтобы ссылка на него находилась в нашем каталоге, свяжитесь с нами, и мы незамедлительно удалим ее. Файлы для обмена на трекере предоставлены пользователями сайта, и администрация не несет ответственности за их содержание. Просьба не заливать файлы, защищенные авторскими правами, а также файлы нелегального содержания!

Искали программы, игры, дополнения, музыка mp3, аниме, аудио книги, журналы? Добро пожаловать на свободный торрент трекер Torrents, у нас можно скачать бесплатно, без смс и регистрации и прочих ограничений лучшие, отборные сборки программ, игр. Скачать торрентом не составит труда даже не опытному пользователю. Раздачи ежедневно обновляются, только лучшие и качественные раздачи, подробные описания и скриншоты. Огромная коллекция программ для работы со звуком, графикой, дизайном, а так же множество плагинов и инструментов к ним с подробной инструкцией и рекомендациями. Прошивки для навигаторов, карты. Разнообразные игры, для Windows, Linux. В коллекцие есть и старые игры любых жанров, Rpg, Action, Shooter, strategy Множество дополнений, модификаций, сценариев для популярных игр в жанре экш, рпг, гонки, стратегии, логические игры. Множество аддонов и сценариев для Microsoft Flight Simulator Большая коллекция книг, учебников. Если нет возможности купить печатное издание - смело скачивайте цифровую версию книги или, быть может, журнала. Не любите читать - можно загрузить бесплатно аудикнигу. Для веб дизайнеров и программистов так же найдется множество специализированного софта, таких как: редакторы с подсветкой, среды программирования, компоненты, системы управления базами данных, разнообразные скрипты и шаблоны. Не так давно у нас появился материал для автолюбителей и владельцев мото - оригинальные и неоригинальные каталоги запчастей, книги и журналы по ремонту и обслуживанию, видеоуроки, статьи по чип тюнингу, прошивкам. Процедура получения контента элементарная, достаточно просто скачать торрент файл и добавить его в загрузку в вашем торрент клиенте. Если у вас нет специального торрент клиента, вы можете его скачать у нас.