Возвращение живых мертвецов / The Return of the Living Dead (Дэн О’Бэннон / Dan O\'Bannon) [1985, США, ужасы, комедия, DVDRip-AVC] [Fullscreen] MVO (Медиа-Фильм) 

Цитировать
Возвращение живых мертвецов
The Return of the Living Dead
Fullscreen Страна: США
Жанр: ужасы, комедия
Год выпуска: 1985
Продолжительность: 01:30:44-Перевод: Профессиональный (многоголосый закадровый) Медиа-Фильм
Фильм озвучен студией СВ-Дубль по заказу Медиа-Фильм в 2017 году
Субтитры: нет
Оригинальная аудиодорожка: нет-Режиссер: Дэн О’Бэннон / Dan O'Bannon
В ролях: Джеймс Карен, Том Мэтьюз, Клу Гулагер, Дон Кэлфа, Марк Вентурини, Линни Куигли, Мигель А. Нуньес мл., Джон Филбин, Беверли Рэндольф, Джуэл Шепард, Брайан Пек, Джонатан Терри, Джон Дарбин,-Описание: На захолустном медицинском складе хранились контейнеры с зомби, по ошибке попавшие туда много лет назад. В один далеко не прекрасный день герметичность упаковки была нарушена, ядовитый газ вырвался наружу, и вот уже мертвецы с соседнего кладбища покидают свое тихое пристанище, чтобы полакомиться мозгом живых…-Доп. информация: Fullscreen
Наполнение кадра отличается от BD
Озвучка на трекере появляется впервые
Сэмпл: 1минута50сек-Качество видео: DVDRip-AVC (спасибо suricat)
Формат видео: MKV
Видео: AVC, 720х480@720х540, 4:3, 23,976 кадра/сек, 2120 Кбит/сек
Аудио: AC-3, 48,0 КГц, 192 Кбит/сек, 2 канала (многоголосый Студия СВ-Дубль по заказу Медиа-Фильм)

Сравнение с BD

MediaInfo

x264.log

x264.exe: --pass 2 --bitrate 2120 --preset veryslow --level 4.1 --aq-mode 2 --deblock -3:-3 --merange 32 --bframes 9 --no-fast-pskip --no-dct-decimate --qcomp 0.90 --subme 11 --no-mbtree --min-keyint 24 --sar 8:9 --stats
avs [info]: 720x480p 8:9 @ 24000/1001 fps (cfr)
x264 [info]: using SAR=8/9
x264 [info]: using cpu capabilities: MMX2 SSE2Fast SSSE3 SSE4.1 Cache64
x264 [info]: profile High, level 4.1
x264 [info]: frame I:846 Avg QP:17.97 size: 48802
x264 [info]: frame P:27123 Avg QP:20.37 size: 22540
x264 [info]: frame B:102566 Avg QP:22.89 size: 7698
x264 [info]: consecutive B-frames: 1.4% 2.0% 11.8% 9.6% 8.4% 63.4% 2.4% 0.5% 0.4% 0.2%
x264 [info]: mb I I16..4: 2.1% 91.9% 6.1%
x264 [info]: mb P I16..4: 0.2% 17.1% 0.3% P16..4: 30.2% 33.3% 15.5% 1.0% 0.1% skip: 2.3%
x264 [info]: mb B I16..4: 0.0% 3.8% 0.0% B16..8: 35.1% 18.5% 3.1% direct: 7.6% skip:31.9% L0:34.3% L1:37.5% BI:28.3%
x264 [info]: 8x8 transform intra:97.4% inter:74.1%
x264 [info]: direct mvs spatial:98.3% temporal:1.7%
x264 [info]: coded y,uvDC,uvAC intra: 98.0% 91.4% 55.6% inter: 30.7% 32.2% 8.9%
x264 [info]: i16 v,h,dc,p: 21% 13% 11% 56%
x264 [info]: i8 v,h,dc,ddl,ddr,vr,hd,vl,hu: 12% 9% 14% 9% 10% 11% 10% 12% 13%
x264 [info]: i4 v,h,dc,ddl,ddr,vr,hd,vl,hu: 12% 7% 5% 9% 16% 16% 13% 11% 11%
x264 [info]: i8c dc,h,v,p: 36% 26% 21% 17%
x264 [info]: Weighted P-Frames: Y:10.1% UV:5.5%
x264 [info]: ref P L0: 40.7% 11.3% 17.9% 5.1% 5.4% 3.4% 3.8% 1.8% 2.0% 1.5% 1.6% 1.2% 1.4% 1.0% 1.2% 0.7%
x264 [info]: ref B L0: 81.6% 8.8% 2.7% 1.5% 1.0% 1.0% 0.8% 0.5% 0.4% 0.4% 0.3% 0.3% 0.3% 0.2% 0.1%
x264 [info]: ref B L1: 95.5% 4.5%
x264 [info]: kb/s:2119.16
encoded 130535 frames, 4.67 fps, 2119.16 kb/s
Общее
Уникальный идентификатор : 229315261710738408266372445734855092212 (0xAC84834EF22E73139E4B47D9BB0DA7F4)
Полное имя : Возвращение живых мертвецов.1985.DVDRip.mkv
Формат : Matroska
Версия формата : Version 4 / Version 2
Размер файла : 1,47 Гбайт
Продолжительность : 1 ч. 30 м.
Общий поток : 2313 Кбит/сек
Название фильма : Возвращение живых мертвецов / The Return of the Living Dead / 1985 / Fullscreen
Дата кодирования : UTC 2017-08-14 12:35:02
Программа кодирования : mkvmerge v8.3.0 ('Over the Horizon') 32bit
Библиотека кодирования : libebml v1.3.1 + libmatroska v1.4.2
Видео
Идентификатор : 1
Формат : AVC
Формат/Информация : Advanced Video Codec
Профиль формата : High@L4.1
Параметр CABAC формата : Да
Параметр RefFrames формата : 16 кадров
Идентификатор кодека : V_MPEG4/ISO/AVC
Продолжительность : 1 ч. 30 м.
Битрейт : 2120 Кбит/сек
Ширина : 720 пикселей
Высота : 480 пикселей
Соотношение сторон : 4:3
Режим частоты кадров : Постоянный
Частота кадров : 23,976 (24000/1001) кадра/сек
Цветовое пространство : YUV
Субдискретизация насыщенности : 4:2:0
Битовая глубина : 8 бит
Тип развёртки : Прогрессивная
Бит/(Пиксели*Кадры) : 0.256
Размер потока : 1,34 Гбайт (92%)
Заголовок : Возвращение живых мертвецов / The Return of the Living Dead / 1985 / Fullscreen
Библиотека кодирования : x264 core 146 r2538 121396c
Настройки программы : cabac=1 / ref=16 / deblock=1:-3:-3 / analyse=0x3:0x133 / me=umh / subme=11 / psy=1 / psy_rd=1.00:0.00 / mixed_ref=1 / me_range=32 / chroma_me=1 / trellis=2 / 8x8dct=1 / cqm=0 / deadzone=21,11 / fast_pskip=0 / chroma_qp_offset=-2 / threads=6 / lookahead_threads=1 / sliced_threads=0 / nr=0 / decimate=0 / interlaced=0 / bluray_compat=0 / constrained_intra=0 / bframes=9 / b_pyramid=2 / b_adapt=2 / b_bias=0 / direct=3 / weightb=1 / open_gop=0 / weightp=2 / keyint=250 / keyint_min=24 / scenecut=40 / intra_refresh=0 / rc=2pass / mbtree=0 / bitrate=2120 / ratetol=1.0 / qcomp=0.90 / qpmin=0 / qpmax=69 / qpstep=4 / cplxblur=20.0 / qblur=0.5 / ip_ratio=1.40 / pb_ratio=1.30 / aq=2:1.00
Язык : English
Default : Да
Forced : Нет
Аудио
Идентификатор : 2
Формат : AC-3
Формат/Информация : Audio Coding 3
Параметр Endianness формата : Big
Идентификатор кодека : A_AC3
Продолжительность : 1 ч. 30 м.
Вид битрейта : Постоянный
Битрейт : 192 Кбит/сек
Каналы : 2 канала
Расположение каналов : Front: L R
Частота : 48,0 КГц
Частота кадров : 31,250 кадров/сек (1536 SPF)
Битовая глубина : 16 бит
Метод сжатия : С потерями
Размер потока : 125 Мбайт (8%)
Заголовок : многоголосый Студия СВ-Дубль по заказу Медиа-Фильм
Язык : Russian
ServiceKind/String : Complete Main
Default : Да
Forced : Нет
Меню
00:00:00.000 : en:Chapter 01
00:04:38.695 : en:Chapter 02
00:08:47.443 : en:Chapter 03
00:12:48.184 : en:Chapter 04
00:19:09.565 : en:Chapter 05
00:20:43.075 : en:Chapter 06
00:27:06.458 : en:Chapter 07
00:35:47.845 : en:Chapter 08
00:39:50.588 : en:Chapter 09
00:44:17.271 : en:Chapter 10
00:52:26.610 : en:Chapter 11
00:55:17.280 : en:Chapter 12
00:58:16.960 : en:Chapter 13
01:02:43.726 : en:Chapter 14
01:16:32.337 : en:Chapter 15
01:22:15.680 : en:Chapter 16
01:26:59.047 : en:Chapter 17
Вы не можете начинать темы
Вы не можете отвечать на сообщения
Вы не можете редактировать свои сообщения
Вы не можете удалять свои сообщения
Вы не можете голосовать в опросах
Вы не можете прикреплять файлы к сообщениям
Вы можете скачивать файлы
!ВНИМАНИЕ!

Сайт не предоставляет электронные версии произведений, а занимается лишь коллекционированием и каталогизацией ссылок, присылаемых и публикуемых на форуме нашими читателями. Если вы являетесь правообладателем какого-либо представленного материала и не желаете, чтобы ссылка на него находилась в нашем каталоге, свяжитесь с нами, и мы незамедлительно удалим ее. Файлы для обмена на трекере предоставлены пользователями сайта, и администрация не несет ответственности за их содержание. Просьба не заливать файлы, защищенные авторскими правами, а также файлы нелегального содержания!

Искали программы, игры, дополнения, музыка mp3, аниме, аудио книги, журналы? Добро пожаловать на свободный торрент трекер Torrents, у нас можно скачать бесплатно, без смс и регистрации и прочих ограничений лучшие, отборные сборки программ, игр. Скачать торрентом не составит труда даже не опытному пользователю. Раздачи ежедневно обновляются, только лучшие и качественные раздачи, подробные описания и скриншоты. Огромная коллекция программ для работы со звуком, графикой, дизайном, а так же множество плагинов и инструментов к ним с подробной инструкцией и рекомендациями. Прошивки для навигаторов, карты. Разнообразные игры, для Windows, Linux. В коллекцие есть и старые игры любых жанров, Rpg, Action, Shooter, strategy Множество дополнений, модификаций, сценариев для популярных игр в жанре экш, рпг, гонки, стратегии, логические игры. Множество аддонов и сценариев для Microsoft Flight Simulator Большая коллекция книг, учебников. Если нет возможности купить печатное издание - смело скачивайте цифровую версию книги или, быть может, журнала. Не любите читать - можно загрузить бесплатно аудикнигу. Для веб дизайнеров и программистов так же найдется множество специализированного софта, таких как: редакторы с подсветкой, среды программирования, компоненты, системы управления базами данных, разнообразные скрипты и шаблоны. Не так давно у нас появился материал для автолюбителей и владельцев мото - оригинальные и неоригинальные каталоги запчастей, книги и журналы по ремонту и обслуживанию, видеоуроки, статьи по чип тюнингу, прошивкам. Процедура получения контента элементарная, достаточно просто скачать торрент файл и добавить его в загрузку в вашем торрент клиенте. Если у вас нет специального торрент клиента, вы можете его скачать у нас.