Грейстоук: Легенда о Тарзане, повелителе обезьян / Greystoke: The Legend of Tarzan, Lord of the Apes (Хью Хадсон / Hugh Hudson) [1984, США, приключения, драма, VHSRip] [Full Screen - 4X3] AVO (Володарский) 

Цитировать
Грейстоук: Легенда о Тарзане, повелителе обезьян / Greystoke: The Legend of Tarzan, Lord of the Apes
Full Screen - 4X3

Страна: США
Жанр: приключения, драма
Год выпуска: 1984
Продолжительность: 02:09:31
Перевод: Авторский (одноголосый закадровый) Леонида Володарского
Субтитры: нет
Оригинальная аудиодорожка: нет
Режиссер: Хью Хадсон /Hugh Hudson/
В ролях: Кристофер Ламберт /Christopher Lambert/, Энди МакДауэлл /Andie MacDowell/, Иэн Холм /Ian Holm/, Ралф (Сэр) Ричардсон /Ralph (Sir) Richardson/, Джеймс Фокс /James Fox/, Шерил Кэмпбелл /Sheryl Campbell/, Николас Фаррелл /Nicholas Farrell/, Иан Чарлсон /Ian Charleson/, Найджел Дэвенпорт /Nigel Davenport/, Черил Кэмпбелл /Cheryl Campbell/, Пол Джеффри /Paul Geoffrey/
Рецензия Михаила Иванова: Свободная экранизация романа Эдгара Райса Берроуза. Сын супружеской пары, потерпевшей кораблекрушение у берегов Африки, "взят на воспитание" обезьянами. Когда он становится взрослым, его возвращает к цивилизованной жизни бельгийский исследователь. Тарзану многое в ней не нравится, особенно то, что обезьян содержат в неволе - в зоопарке. Интереснее всего смотрятся первые минут сорок фильма, когда действие происходит в Африке. Хотя приучение Ламберта пользоваться ножом и вилкой тоже смотрится забавно.
Доп. информация: древнюю кассету panasonic premium std NV-E180ps оцифровал karlll
по следам вхс-рипа в переводе Михалёва от edich2/alenavova
~Сэмпл~
Качество видео: VHSRip
Формат видео: AVI
Видео: 704x528 (1.33:1), 25 fps, XviD build 73 ~2174 kbps avg, 0.23 bit/pixel
Аудио: 48 kHz, AC3 Dolby Digital, 2/0 (L,R) ch, ~192 kbps

MediaInfo

Формат : AVI
Формат/Информация : Audio Video Interleave
Профиль формата : OpenDML
Размер файла : 2,15 Гбайт
Продолжительность : 2 ч. 9 м.
Общий поток : 2373 Кбит/сек
Название фильма : Greystoke: The Legend of Tarzan, Lord of the Apes (1984)
Программа кодирования : VirtualDubMod 1.5.10.3 | www.virtualdub-fr.org || (build 2550/release)
Библиотека кодирования : VirtualDubMod build 2550/release
Правообладатель : Karl's Bayou Country
Видео
Идентификатор : 0
Формат : MPEG-4 Visual
Профиль формата : Advanced Simple@L5
Параметр BVOP формата : 2
Параметр QPel формата : Нет
Параметр GMC формата : Без точки перехода
Параметр матрицы формата : Выборочная
Идентификатор кодека : XVID
Идентификатор кодека/Подсказка : XviD
Продолжительность : 2 ч. 9 м.
Битрейт : 2169 Кбит/сек
Ширина : 704 пикселя
Высота : 528 пикселей
Соотношение сторон : 4:3
Частота кадров : 25,000 кадров/сек
Цветовое пространство : YUV
Субдискретизация насыщенности : 4:2:0
Битовая глубина : 8 бит
Тип развёртки : Прогрессивная
Метод сжатия : С потерями
Бит/(Пиксели*Кадры) : 0.233
Размер потока : 1,96 Гбайт (91%)
Библиотека кодирования : XviD 73
Аудио
Идентификатор : 1
Формат : AC-3
Формат/Информация : Audio Coding 3
Расширение режима : CM (complete main)
Параметр Endianness формата : Big
Идентификатор кодека : 2000
Продолжительность : 2 ч. 9 м.
Вид битрейта : Постоянный
Битрейт : 192 Кбит/сек
Каналы : 2 канала
Расположение каналов : Front: L R
Частота : 48,0 КГц
Битовая глубина : 16 бит
Метод сжатия : С потерями
Размер потока : 178 Мбайт (8%)
Выравнивание : Разделение по промежуткам
Продолжительность промежутка : 40 мс. (1,00 видеокадр)
Время предзагрузки промежутка : 500 мс.
Заголовок : перевод Володарского

Скриншоты

Вы не можете начинать темы
Вы не можете отвечать на сообщения
Вы не можете редактировать свои сообщения
Вы не можете удалять свои сообщения
Вы не можете голосовать в опросах
Вы не можете прикреплять файлы к сообщениям
Вы можете скачивать файлы
!ВНИМАНИЕ!

Сайт не предоставляет электронные версии произведений, а занимается лишь коллекционированием и каталогизацией ссылок, присылаемых и публикуемых на форуме нашими читателями. Если вы являетесь правообладателем какого-либо представленного материала и не желаете, чтобы ссылка на него находилась в нашем каталоге, свяжитесь с нами, и мы незамедлительно удалим ее. Файлы для обмена на трекере предоставлены пользователями сайта, и администрация не несет ответственности за их содержание. Просьба не заливать файлы, защищенные авторскими правами, а также файлы нелегального содержания!

Искали программы, игры, дополнения, музыка mp3, аниме, аудио книги, журналы? Добро пожаловать на свободный торрент трекер Torrents, у нас можно скачать бесплатно, без смс и регистрации и прочих ограничений лучшие, отборные сборки программ, игр. Скачать торрентом не составит труда даже не опытному пользователю. Раздачи ежедневно обновляются, только лучшие и качественные раздачи, подробные описания и скриншоты. Огромная коллекция программ для работы со звуком, графикой, дизайном, а так же множество плагинов и инструментов к ним с подробной инструкцией и рекомендациями. Прошивки для навигаторов, карты. Разнообразные игры, для Windows, Linux. В коллекцие есть и старые игры любых жанров, Rpg, Action, Shooter, strategy Множество дополнений, модификаций, сценариев для популярных игр в жанре экш, рпг, гонки, стратегии, логические игры. Множество аддонов и сценариев для Microsoft Flight Simulator Большая коллекция книг, учебников. Если нет возможности купить печатное издание - смело скачивайте цифровую версию книги или, быть может, журнала. Не любите читать - можно загрузить бесплатно аудикнигу. Для веб дизайнеров и программистов так же найдется множество специализированного софта, таких как: редакторы с подсветкой, среды программирования, компоненты, системы управления базами данных, разнообразные скрипты и шаблоны. Не так давно у нас появился материал для автолюбителей и владельцев мото - оригинальные и неоригинальные каталоги запчастей, книги и журналы по ремонту и обслуживанию, видеоуроки, статьи по чип тюнингу, прошивкам. Процедура получения контента элементарная, достаточно просто скачать торрент файл и добавить его в загрузку в вашем торрент клиенте. Если у вас нет специального торрент клиента, вы можете его скачать у нас.