Человек тьмы / Человек из тьмы / Darkman (Сэм Рэйми / Sam Raimi) [1990, США, Фантастический триллер, BDRip] AVO (Юрий Живов) + Original Eng 

Цитировать
Человек тьмы / Человек из тьмы / Darkman
«They destroyed everthing he had, everything he was. Now, crime has a new enemy and justice has a new face»
Страна: США
Жанр: Фантастический триллер
Год выпуска: 1990
Продолжительность: 01:35:23
Перевод: Авторский (одноголосый закадровый) Юрий Живов
Субтитры: нет
Оригинальная аудиодорожка: английский
Режиссер: Сэм Рэйми / Sam Raimi
В ролях: Лиам Нисон, Фрэнсис МакДорманд, Колин Фрилз, Ларри Дрэйк, Нельсон Масита, Джесси Фергюсон, Рафаэль Х. Робледо, Дэн Хикс, Тед Рэйми, Дэн Белл
Описание: Доктор Пэйтон Уэстлэйк находится на пороге грандиозного открытия: он заканчивает эксперименты по созданию искусственной человеческой кожи. Но банда уголовников во главе с извращенным садистом Робертом Дюраном вторгается в лабораторию Пэйтона и взрывает ее вместе с несчастным доктором.
Чудом оставшийся в живых и обезображенный до неузнаваемости Пэйтон, решает отомстить подонкам. Но теперь он предстанет перед ними не как доктор Уэстлэйк, а как грозный и жуткий Человек Тьмы.
Доп. информация: Дорожка с Ю. Живовым синхронизирована и наложена ale_x2008 при помощи Sony Vegas и VirtualDubMod.
За оцифрованную с VHS дорожку благодарим - d_rocker
P.S. 01:27:13 - 01:28:35 - вставка с переводом А. Гаврилова.

Релиз
Сэмпл: http://yadi.sk/i/cpKLepen3MjUTw
Качество видео: BDRip от HQCLUB (источник: whipper / BDRemux / 1080p)
Формат видео: AVI
Видео: XviD build 64, 704x384 (1.83:1), 23.976 fps, 1792 kbps avg, 0.28 bit/pixel
Аудио: AC3 Dolby Digital, 48000Hz, 2/0 (L,R) ch (mono), 192.00 kbps avg
Аудио 2: AC3 Dolby Digital, 48000Hz, 2/0 (L,R) ch, 192.00 kbps avg

MediaInfo

Человек тьмы - Darkman [by ale_x2008].avi
Format : AVI
Format/Info : Audio Video Interleave
File size : 1.46 GiB
Duration : 1 h 35 min
Overall bit rate : 2 190 kb/s
Movie name : Darkman (1990) BDRip
Director : Flynn82
Genre : Fantastic/Action/Thriller/Crime
Writing application : VirtualDubMod 1.5.10.2 (build 2540/release)
Copyright : by ale_x2008 | Edich2
Comment : RuTracker.org
Video
ID : 0
Format : MPEG-4 Visual
Format profile : Advanced Simple@L5
Format settings, BVOP : 1
Format settings, QPel : No
Format settings, GMC : No warppoints
Format settings, Matrix : Custom
Codec ID : XVID
Codec ID/Hint : XviD
Duration : 1 h 35 min
Bit rate : 1 792 kb/s
Width : 704 pixels
Height : 384 pixels
Display aspect ratio : 1.85:1
Frame rate : 23.976 (24000/1001) FPS
Color space : YUV
Chroma subsampling : 4:2:0
Bit depth : 8 bits
Scan type : Progressive
Compression mode : Lossy
Bits/(Pixel*Frame) : 0.276
Stream size : 1.19 GiB (82%)
Writing library : XviD 64
Audio #1
ID : 1
Format : AC-3
Format/Info : Audio Coding 3
Format settings, Endianness : Big
Codec ID : 2000
Duration : 1 h 35 min
Bit rate mode : Constant
Bit rate : 192 kb/s
Channel(s) : 2 channels
Channel positions : Front: L R
Sampling rate : 48.0 kHz
Frame rate : 31.250 FPS (1536 spf)
Bit depth : 16 bits
Compression mode : Lossy
Stream size : 131 MiB (9%)
Alignment : Split accross interleaves
Interleave, duration : 42 ms (1.00 video frame)
Interleave, preload duratio : 500 ms
Service kind : Complete Main
Audio #2
ID : 2
Format : AC-3
Format/Info : Audio Coding 3
Format settings, Endianness : Big
Codec ID : 2000
Duration : 1 h 35 min
Bit rate mode : Constant
Bit rate : 192 kb/s
Channel(s) : 2 channels
Channel positions : Front: L R
Sampling rate : 48.0 kHz
Frame rate : 31.250 FPS (1536 spf)
Bit depth : 16 bits
Compression mode : Lossy
Stream size : 131 MiB (9%)
Alignment : Split accross interleaves
Interleave, duration : 42 ms (1.00 video frame)
Interleave, preload duratio : 500 ms
Service kind : Complete Main

Скриншоты


Вы не можете начинать темы
Вы не можете отвечать на сообщения
Вы не можете редактировать свои сообщения
Вы не можете удалять свои сообщения
Вы не можете голосовать в опросах
Вы не можете прикреплять файлы к сообщениям
Вы можете скачивать файлы
!ВНИМАНИЕ!

Сайт не предоставляет электронные версии произведений, а занимается лишь коллекционированием и каталогизацией ссылок, присылаемых и публикуемых на форуме нашими читателями. Если вы являетесь правообладателем какого-либо представленного материала и не желаете, чтобы ссылка на него находилась в нашем каталоге, свяжитесь с нами, и мы незамедлительно удалим ее. Файлы для обмена на трекере предоставлены пользователями сайта, и администрация не несет ответственности за их содержание. Просьба не заливать файлы, защищенные авторскими правами, а также файлы нелегального содержания!

Искали программы, игры, дополнения, музыка mp3, аниме, аудио книги, журналы? Добро пожаловать на свободный торрент трекер Torrents, у нас можно скачать бесплатно, без смс и регистрации и прочих ограничений лучшие, отборные сборки программ, игр. Скачать торрентом не составит труда даже не опытному пользователю. Раздачи ежедневно обновляются, только лучшие и качественные раздачи, подробные описания и скриншоты. Огромная коллекция программ для работы со звуком, графикой, дизайном, а так же множество плагинов и инструментов к ним с подробной инструкцией и рекомендациями. Прошивки для навигаторов, карты. Разнообразные игры, для Windows, Linux. В коллекцие есть и старые игры любых жанров, Rpg, Action, Shooter, strategy Множество дополнений, модификаций, сценариев для популярных игр в жанре экш, рпг, гонки, стратегии, логические игры. Множество аддонов и сценариев для Microsoft Flight Simulator Большая коллекция книг, учебников. Если нет возможности купить печатное издание - смело скачивайте цифровую версию книги или, быть может, журнала. Не любите читать - можно загрузить бесплатно аудикнигу. Для веб дизайнеров и программистов так же найдется множество специализированного софта, таких как: редакторы с подсветкой, среды программирования, компоненты, системы управления базами данных, разнообразные скрипты и шаблоны. Не так давно у нас появился материал для автолюбителей и владельцев мото - оригинальные и неоригинальные каталоги запчастей, книги и журналы по ремонту и обслуживанию, видеоуроки, статьи по чип тюнингу, прошивкам. Процедура получения контента элементарная, достаточно просто скачать торрент файл и добавить его в загрузку в вашем торрент клиенте. Если у вас нет специального торрент клиента, вы можете его скачать у нас.