Куни Лемель в Тель-Авиве / Kuni Leml B\'Tel Aviv / Kuni Lemel in Tel Aviv (Йоэль Зильберг / Джоэл Силберг / Joel Silberg) [1976, Израиль, комедия, мюзикл, SATRip] Original Heb + Sub Rus 

Цитировать
Куни Лемель в Тель-Авиве / Kuni Leml B'Tel Aviv / Kuni Lemel in Tel Aviv
Страна: Израиль
Жанр: комедия, мюзикл
Год выпуска: 1976
Продолжительность: 01:32:47
Перевод: Субтитры
Субтитры: русские
Оригинальная аудиодорожка: иврит
Режиссер: Йоэль Зильберг / Джоэл Силберг / Joel Silberg
В ролях: Майк Берштейн, Зеев Берлинский, Далья Гур, Цви Лахат, Нахум Шалит, Йосеф Баши
Описание: Куни Лемель — легендарный герой-неудачник из еврейских городских легенд штетла. В фильме мы встречаем современного восьмидесятилетнего Куни, живущего в Бруклине. Он хочет, чтобы оба его внука женились на еврейках и вернулись в Израиль. Для большей уверенности в том, что они выполнят его волю до конца, Куни подкрепляет свою просьбу, обещая выплатить 5 миллионов первому из них кто исполнит его просьбу.
Доп. информация: За предоставленный релиз спасибо abraka.
2 фильм из трилогии Куни Лемель, 1-ий и 3-ий перевела Ombranetta:
Два Куни Лемеля
Куни Лемель в Каире
Сэмпл: http://multi-up.com/1166622
Качество видео: SATRip
Формат видео: AVI
Видео: Xvid 704x528 25fps 2193kbps
Аудио: MP3 48000Hz stereo 128kbps
Формат субтитров: hardsub (неотключаемые)

MediaInfo

General
Complete name : C:\Downloads\Куни Лемель в Тель Авиве.avi
Format : AVI
Format/Info : Audio Video Interleave
File size : 1.51 GiB
Duration : 1h 32mn
Overall bit rate : 2 331 Kbps
Writing library : VirtualDub-MPEG2 build 24600/release
Video
ID : 0
Format : MPEG-4 Visual
Format profile : Simple@L5
Format settings, BVOP : No
Format settings, QPel : No
Format settings, GMC : No warppoints
Format settings, Matrix : Default (H.263)
Codec ID : XVID
Codec ID/Hint : XviD
Duration : 1h 32mn
Bit rate : 2 194 Kbps
Width : 704 pixels
Height : 528 pixels
Display aspect ratio : 4:3
Frame rate : 25.000 fps
Color space : YUV
Chroma subsampling : 4:2:0
Bit depth : 8 bits
Scan type : Progressive
Compression mode : Lossy
Bits/(Pixel*Frame) : 0.236
Stream size : 1.42 GiB (94%)
Writing library : XviD 67
Audio
ID : 1
Format : MPEG Audio
Format version : Version 1
Format profile : Layer 3
Mode : Joint stereo
Mode extension : MS Stereo
Codec ID : 55
Codec ID/Hint : MP3
Duration : 1h 32mn
Bit rate mode : Constant
Bit rate : 128 Kbps
Channel(s) : 2 channels
Sampling rate : 48.0 KHz
Compression mode : Lossy
Stream size : 84.9 MiB (5%)
Alignment : Split accross interleaves
Interleave, duration : 40 ms (1.00 video frame)
Interleave, preload duration : 500 ms

Скриншоты






Вы не можете начинать темы
Вы не можете отвечать на сообщения
Вы не можете редактировать свои сообщения
Вы не можете удалять свои сообщения
Вы не можете голосовать в опросах
Вы не можете прикреплять файлы к сообщениям
Вы можете скачивать файлы
!ВНИМАНИЕ!

Сайт не предоставляет электронные версии произведений, а занимается лишь коллекционированием и каталогизацией ссылок, присылаемых и публикуемых на форуме нашими читателями. Если вы являетесь правообладателем какого-либо представленного материала и не желаете, чтобы ссылка на него находилась в нашем каталоге, свяжитесь с нами, и мы незамедлительно удалим ее. Файлы для обмена на трекере предоставлены пользователями сайта, и администрация не несет ответственности за их содержание. Просьба не заливать файлы, защищенные авторскими правами, а также файлы нелегального содержания!

Искали программы, игры, дополнения, музыка mp3, аниме, аудио книги, журналы? Добро пожаловать на свободный торрент трекер Torrents, у нас можно скачать бесплатно, без смс и регистрации и прочих ограничений лучшие, отборные сборки программ, игр. Скачать торрентом не составит труда даже не опытному пользователю. Раздачи ежедневно обновляются, только лучшие и качественные раздачи, подробные описания и скриншоты. Огромная коллекция программ для работы со звуком, графикой, дизайном, а так же множество плагинов и инструментов к ним с подробной инструкцией и рекомендациями. Прошивки для навигаторов, карты. Разнообразные игры, для Windows, Linux. В коллекцие есть и старые игры любых жанров, Rpg, Action, Shooter, strategy Множество дополнений, модификаций, сценариев для популярных игр в жанре экш, рпг, гонки, стратегии, логические игры. Множество аддонов и сценариев для Microsoft Flight Simulator Большая коллекция книг, учебников. Если нет возможности купить печатное издание - смело скачивайте цифровую версию книги или, быть может, журнала. Не любите читать - можно загрузить бесплатно аудикнигу. Для веб дизайнеров и программистов так же найдется множество специализированного софта, таких как: редакторы с подсветкой, среды программирования, компоненты, системы управления базами данных, разнообразные скрипты и шаблоны. Не так давно у нас появился материал для автолюбителей и владельцев мото - оригинальные и неоригинальные каталоги запчастей, книги и журналы по ремонту и обслуживанию, видеоуроки, статьи по чип тюнингу, прошивкам. Процедура получения контента элементарная, достаточно просто скачать торрент файл и добавить его в загрузку в вашем торрент клиенте. Если у вас нет специального торрент клиента, вы можете его скачать у нас.