Месть гайдуков / Răzbunarea haiducilor (Дину Коча / Dinu Cocea) [1968, Румыния, исторический боевик, VHSRip] [Советская прокатная копия] Dub (Ленфильм) 

Цитировать
Месть гайдуков / Răzbunarea haiducilor [Советская прокатная копия]- Страна: Румыния
Жанр: исторический боевик
Год выпуска: 1968
Продолжительность: 01:22:42-Перевод: Профессиональный (дублированный) - Киностудия "Ленфильм"
Субтитры: нет-Режиссер: Дину Коча / Dinu Cocea
В ролях: Эманоил Петруц, Марга Барбу, Джордже Константин, Тома Караджу, Олга Тудораке, Коля Рэуту, Флорин Скэрлэтеску, Элизабета Жар, Михай Паладеску, Жан Константин...- | Релиз: -Описание: Эта приключенческая лента, являющаяся продолжением фильмов "Гайдуки" и "Похищение девушек", рассказывает о борьбе гайдуков - народных мстителей - с турецкими поработителями и их пособниками - румынскими боярами.
...Правитель Вода Ханджел пал жертвой коварства и подлости своей жены Хариклеи, которая после этого бежит с награбленными у бояр драгоценностями. Её преследует племянница, принцесса Мария. Корабль Хариклеи захватывают гайдуки, направившиеся в погоню за пашой Пазваноглу, который вёз в подарок султану румынских детей. Амза, атаман гайдуков, попадает в плен к паше. После ряда драматических ситуаций гайдукам удаётся выручить из неволи Амзу и похищенных детей.-Доп. информация: За оцифровку кассеты спасибо alenavova.-Семпл: http://sendfile.su/1360307-Тип релиза: VHSRip
Контейнер: MPG
Видео: 720x576 (4:3) @ 768x576, 25.000 fps, MPEG-2 Video, ~5988 Kbps, 0.578 bits/pixel
Аудио: Русский, 48.0 KHz, MPEG-1 Audio layer 2, 2 ch, 192 Kbps

MediaInfo

General
Complete name : Месть гайдуков 1968 Dub Ленфильм.mpg
Format : MPEG-PS
File size : 3.64 GiB
Duration : 1 h 22 min
Overall bit rate mode : Variable
Overall bit rate : 6 305 kb/s
Writing library : (dvd5: Jun 16 2014)
Video
ID : 224 (0xE0)
Format : MPEG Video
Format version : Version 2
Format profile : Main@Main
Format settings, BVOP : Yes
Format settings, Matrix : Custom
Format settings, GOP : M=3, N=15
Duration : 1 h 22 min
Bit rate mode : Variable
Bit rate : 6 000 kb/s
Width : 720 pixels
Height : 576 pixels
Display aspect ratio : 4:3
Frame rate : 25.000 FPS
Standard : PAL
Color space : YUV
Chroma subsampling : 4:2:0
Bit depth : 8 bits
Scan type : Progressive
Compression mode : Lossy
Bits/(Pixel*Frame) : 0.579
Time code of first frame : 00:00:00:00
Time code source : Group of pictures header
GOP, Open/Closed : Open
GOP, Open/Closed of first frame : Closed
Stream size : 3.46 GiB (95%)
Writing library : (dvd5: Jun 16 2014)
Audio
ID : 192 (0xC0)
Format : MPEG Audio
Format version : Version 1
Format profile : Layer 2
Duration : 1 h 22 min
Bit rate mode : Constant
Bit rate : 192 kb/s
Channel(s) : 2 channels
Sampling rate : 48.0 kHz
Compression mode : Lossy
Stream size : 114 MiB (3%)
Menu

Описание из "Аннотированного каталога фильмов действующего фонда", 1980г.

Вы не можете начинать темы
Вы не можете отвечать на сообщения
Вы не можете редактировать свои сообщения
Вы не можете удалять свои сообщения
Вы не можете голосовать в опросах
Вы не можете прикреплять файлы к сообщениям
Вы можете скачивать файлы
!ВНИМАНИЕ!

Сайт не предоставляет электронные версии произведений, а занимается лишь коллекционированием и каталогизацией ссылок, присылаемых и публикуемых на форуме нашими читателями. Если вы являетесь правообладателем какого-либо представленного материала и не желаете, чтобы ссылка на него находилась в нашем каталоге, свяжитесь с нами, и мы незамедлительно удалим ее. Файлы для обмена на трекере предоставлены пользователями сайта, и администрация не несет ответственности за их содержание. Просьба не заливать файлы, защищенные авторскими правами, а также файлы нелегального содержания!

Искали программы, игры, дополнения, музыка mp3, аниме, аудио книги, журналы? Добро пожаловать на свободный торрент трекер Torrents, у нас можно скачать бесплатно, без смс и регистрации и прочих ограничений лучшие, отборные сборки программ, игр. Скачать торрентом не составит труда даже не опытному пользователю. Раздачи ежедневно обновляются, только лучшие и качественные раздачи, подробные описания и скриншоты. Огромная коллекция программ для работы со звуком, графикой, дизайном, а так же множество плагинов и инструментов к ним с подробной инструкцией и рекомендациями. Прошивки для навигаторов, карты. Разнообразные игры, для Windows, Linux. В коллекцие есть и старые игры любых жанров, Rpg, Action, Shooter, strategy Множество дополнений, модификаций, сценариев для популярных игр в жанре экш, рпг, гонки, стратегии, логические игры. Множество аддонов и сценариев для Microsoft Flight Simulator Большая коллекция книг, учебников. Если нет возможности купить печатное издание - смело скачивайте цифровую версию книги или, быть может, журнала. Не любите читать - можно загрузить бесплатно аудикнигу. Для веб дизайнеров и программистов так же найдется множество специализированного софта, таких как: редакторы с подсветкой, среды программирования, компоненты, системы управления базами данных, разнообразные скрипты и шаблоны. Не так давно у нас появился материал для автолюбителей и владельцев мото - оригинальные и неоригинальные каталоги запчастей, книги и журналы по ремонту и обслуживанию, видеоуроки, статьи по чип тюнингу, прошивкам. Процедура получения контента элементарная, достаточно просто скачать торрент файл и добавить его в загрузку в вашем торрент клиенте. Если у вас нет специального торрент клиента, вы можете его скачать у нас.