Рокки 5 / Rocky V (Джон Г. Эвилдсен / John G. Avildsen) [1990, США, драма, спорт, DVDRip-AVC] [Fullscreen] MVO (Варус Видео) + Sub Rus, Eng + Original Eng 

Цитировать
Рокки 5 / Rocky V / Fullscreen
Страна: США
Жанр: драма, спорт
Год выпуска: 1990
Продолжительность: 01:44:06
Перевод: Профессиональный (многоголосый закадровый) Варус Видео
Субтитры: русские, английские
Оригинальная аудиодорожка: английский
Режиссер: Джон Г. Эвилдсен / John G. Avildsen
В ролях: Сильвестр Сталлоне, Талия Шайр, Берт Янг, Сэйдж Сталлоне, Бёрджесс Мередит, Томми Моррисон, Ричард Гант, Тони Бертон, Джимми Гамбина, Делия Шеппард
Описание: После поединка с советским чемпионом Иваном Драго, боксерская карьера Рокки подходит к концу. Здоровье потеряно, да и возраст уже ветеранский. А все заработанные потом и кровью сбережения украдены или потрачены. Так что единственное, что ему остается — это перейти на тренерскую работу.
Но и там не все спокойно, его любимый, подающий надежды ученик, бросает Рокки и уходит к другому тренеру. Но никакие удары судьбы не смогут сломить стоический характер Рокки.
Даже в сложившейся ситуации он не теряет веры в свою счастливую звезду и находит в себе силы для новых достижений.
Доп. информация: Автор рипа GambitX
Сэмпл: http://multi-up.com/1167151
Качество видео: DVDRip-AVC
Формат видео: MKV
Видео: 640x480 (4:3), 23.976 fps, AVC, ~1500 Kbps, 0.204 bits/pixel
Аудио: 48kHz AC3 2.0 192Kbps (Варус Видео)
Аудио 2: 48kHz AC3 2.0 192Kbps (English)

MediaInfo

General
Unique ID : 233046371648778404373572546044668760492 (0xAF53193B28411008AAE8D7CB9D3D51AC)
Complete name : C:\chopperxp\Rocky V (1990)(Fullscreen).mkv
Format : Matroska
Format version : Version 4 / Version 2
File size : 1.37 GiB
Duration : 1h 44mn
Overall bit rate : 1 880 Kbps
Encoded date : UTC 2017-09-04 14:29:36
Writing application : mkvmerge v9.4.0 ('Knurl') 32bit
Writing library : libebml v1.3.4 + libmatroska v1.4.5
DURATION : 01:44:05.568000000
NUMBER_OF_FRAMES : 195174
NUMBER_OF_BYTES : 149893632
_STATISTICS_WRITING_APP : mkvmerge v9.4.0 ('Knurl') 32bit
_STATISTICS_WRITING_DATE_UTC : 2017-09-04 14:29:36
_STATISTICS_TAGS : BPS DURATION NUMBER_OF_FRAMES NUMBER_OF_BYTES
Video
ID : 1
Format : AVC
Format/Info : Advanced Video Codec
Format profile : High@L4.1
Format settings, CABAC : Yes
Format settings, ReFrames : 7 frames
Codec ID : V_MPEG4/ISO/AVC
Duration : 1h 44mn
Bit rate : 1 500 Kbps
Width : 640 pixels
Height : 480 pixels
Display aspect ratio : 4:3
Frame rate mode : Constant
Frame rate : 23.976 fps
Color space : YUV
Chroma subsampling : 4:2:0
Bit depth : 8 bits
Scan type : Progressive
Bits/(Pixel*Frame) : 0.204
Stream size : 1.06 GiB (78%)
Writing library : x264 core 116 r2074 2641b9e
Encoding settings : cabac=1 / ref=7 / deblock=1:0:0 / analyse=0x3:0x113 / me=hex / subme=7 / psy=1 / psy_rd=1.00:0.00 / mixed_ref=1 / me_range=16 / chroma_me=1 / trellis=1 / 8x8dct=1 / cqm=0 / deadzone=21,11 / fast_pskip=1 / chroma_qp_offset=-2 / threads=3 / sliced_threads=0 / nr=0 / decimate=1 / interlaced=0 / bluray_compat=0 / constrained_intra=0 / bframes=3 / b_pyramid=2 / b_adapt=1 / b_bias=0 / direct=1 / weightb=1 / open_gop=0 / weightp=2 / keyint=250 / keyint_min=23 / scenecut=40 / intra_refresh=0 / rc_lookahead=40 / rc=abr / mbtree=1 / bitrate=1500 / ratetol=1.0 / qcomp=0.60 / qpmin=0 / qpmax=69 / qpstep=4 / ip_ratio=1.40 / aq=1:1.00
Default : Yes
Forced : No
Audio #1
ID : 2
Format : AC-3
Format/Info : Audio Coding 3
Mode extension : CM (complete main)
Format settings, Endianness : Big
Codec ID : A_AC3
Duration : 1h 44mn
Bit rate mode : Constant
Bit rate : 192 Kbps
Channel(s) : 2 channels
Channel positions : Front: L R
Sampling rate : 48.0 KHz
Bit depth : 16 bits
Compression mode : Lossy
Stream size : 143 MiB (10%)
Language : Russian
Default : Yes
Forced : No
Audio #2
ID : 3
Format : AC-3
Format/Info : Audio Coding 3
Mode extension : CM (complete main)
Format settings, Endianness : Big
Codec ID : A_AC3
Duration : 1h 44mn
Bit rate mode : Constant
Bit rate : 192 Kbps
Channel(s) : 2 channels
Channel positions : Front: L R
Sampling rate : 48.0 KHz
Bit depth : 16 bits
Compression mode : Lossy
Stream size : 143 MiB (10%)
Language : English
Default : No
Forced : No
Text #1
ID : 4
Format : UTF-8
Codec ID : S_TEXT/UTF8
Codec ID/Info : UTF-8 Plain Text
Language : Russian
Default : No
Forced : No
Text #2
ID : 5
Format : UTF-8
Codec ID : S_TEXT/UTF8
Codec ID/Info : UTF-8 Plain Text
Language : English
Default : No
Forced : No

Скриншоты

Вы не можете начинать темы
Вы не можете отвечать на сообщения
Вы не можете редактировать свои сообщения
Вы не можете удалять свои сообщения
Вы не можете голосовать в опросах
Вы не можете прикреплять файлы к сообщениям
Вы можете скачивать файлы
!ВНИМАНИЕ!

Сайт не предоставляет электронные версии произведений, а занимается лишь коллекционированием и каталогизацией ссылок, присылаемых и публикуемых на форуме нашими читателями. Если вы являетесь правообладателем какого-либо представленного материала и не желаете, чтобы ссылка на него находилась в нашем каталоге, свяжитесь с нами, и мы незамедлительно удалим ее. Файлы для обмена на трекере предоставлены пользователями сайта, и администрация не несет ответственности за их содержание. Просьба не заливать файлы, защищенные авторскими правами, а также файлы нелегального содержания!

Искали программы, игры, дополнения, музыка mp3, аниме, аудио книги, журналы? Добро пожаловать на свободный торрент трекер Torrents, у нас можно скачать бесплатно, без смс и регистрации и прочих ограничений лучшие, отборные сборки программ, игр. Скачать торрентом не составит труда даже не опытному пользователю. Раздачи ежедневно обновляются, только лучшие и качественные раздачи, подробные описания и скриншоты. Огромная коллекция программ для работы со звуком, графикой, дизайном, а так же множество плагинов и инструментов к ним с подробной инструкцией и рекомендациями. Прошивки для навигаторов, карты. Разнообразные игры, для Windows, Linux. В коллекцие есть и старые игры любых жанров, Rpg, Action, Shooter, strategy Множество дополнений, модификаций, сценариев для популярных игр в жанре экш, рпг, гонки, стратегии, логические игры. Множество аддонов и сценариев для Microsoft Flight Simulator Большая коллекция книг, учебников. Если нет возможности купить печатное издание - смело скачивайте цифровую версию книги или, быть может, журнала. Не любите читать - можно загрузить бесплатно аудикнигу. Для веб дизайнеров и программистов так же найдется множество специализированного софта, таких как: редакторы с подсветкой, среды программирования, компоненты, системы управления базами данных, разнообразные скрипты и шаблоны. Не так давно у нас появился материал для автолюбителей и владельцев мото - оригинальные и неоригинальные каталоги запчастей, книги и журналы по ремонту и обслуживанию, видеоуроки, статьи по чип тюнингу, прошивкам. Процедура получения контента элементарная, достаточно просто скачать торрент файл и добавить его в загрузку в вашем торрент клиенте. Если у вас нет специального торрент клиента, вы можете его скачать у нас.