(Jazz Rock/Fusion, Jazz-Funk, Psychedelic Rock) [CD] Sunbirds - Discography - 1971-1973 - 2 Albums (Garden of Delights), FLAC (tracks+.cue), lossless 

Цитировать
-Sunbirds - Discography - 1971-1973-
Страна исполнителя: Multi-National
Жанр: Progressive Rock, Jazz Rock/Fusion, Jazz-Funk, Psychedelic Rock || Носитель: CD || Аудио кодек: FLAC ||
Тип рипа: (tracks + .cue) || Битрейт аудио: lossless || Включает: Full artwork, jpg, 600 dpi || Общая длительность: 01:42:46 ||

1971 - Sunbirds (2011, Garden of Delights #CD 161)

Год издания оригинала: 1971, LP BASF #20 21110-2
Год переиздания: 2011
Страна - производитель диска: Germany
Издатель (лейбл): Garden of Delights
Номер по каталогу: CD 161
Продолжительность: 01:02:50
Источник (релизер): Моя коллекция, мой рип

Трэклист:
1. Kwaeli (3:43)
2. Sunrise (5:34)
3. Spanish Sun (12:17)
4. Sunshine (6:54)
5. Sunbirds (9:41)
6. Blues For D.S. (8:04)
Bonus Tracks:
7. Dreams (9:44)
8. Fire Dance (6:50)

Лог создания рипа (30.09.2018)

Exact Audio Copy V1.3 from 2. September 2016
EAC extraction logfile from 30. September 2018, 12:10
Sunbirds / Sunbirds
Used drive : ATAPI iHAS122 F Adapter: 1 ID: 0
Read mode : SecureUtilize accurate stream : YesDefeat audio cache : YesMake use of C2 pointers : No
Read offset correction : 6Overread into Lead-In and Lead-Out : NoFill up missing offset samples with silence : YesDelete leading and trailing silent blocks : NoNull samples used in CRC calculations : YesUsed interface : Native Win32 interface for Win NT & 2000Gap handling : Appended to previous track
Used output format : User Defined EncoderSelected bitrate : 1024 kBit/sQuality : HighAdd ID3 tag : YesCommand line compressor : C:\Program Files (x86)\Exact Audio Copy\Flac\flac.exeAdditional command line options : -6 -V -T "ARTIST=%artist%" -T "TITLE=%title%" -T "ALBUM=%albumtitle%" -T "DATE=%year%" -T "TRACKNUMBER=%tracknr%" -T "GENRE=%genre%" -T "COMMENT=%comment%" %hascover%--picture="%coverfile%"%hascover% %source% -o %dest%
TOC of the extracted CD
Track | Start | Length | Start sector | End sector --------------------------------------------------------- 1 | 0:00.00 | 3:43.62 | 0 | 16786 2 | 3:43.62 | 5:34.49 | 16787 | 41885 3 | 9:18.36 | 12:17.31 | 41886 | 97191 4 | 21:35.67 | 6:54.04 | 97192 | 128245 5 | 28:29.71 | 9:41.29 | 128246 | 171849 6 | 38:11.25 | 8:04.01 | 171850 | 208150 7 | 46:15.26 | 9:44.67 | 208151 | 252017 8 | 56:00.18 | 6:50.34 | 252018 | 282801
Track 1
Filename E:\Music\olaf_alien\Sunbirds - Sunbirds (1971, BASF - 2011, Garden Of Delights)\01 - Kwaeli.wav
Pre-gap length 0:00:02.00
Peak level 98.8 % Extraction speed 5.2 X Track quality 100.0 % Test CRC EF394822 Copy CRC EF394822 Accurately ripped (confidence 6) [CC3C8364] (AR v2) Copy OK
Track 2
Filename E:\Music\olaf_alien\Sunbirds - Sunbirds (1971, BASF - 2011, Garden Of Delights)\02 - Sunrise.wav
Peak level 98.8 % Extraction speed 5.3 X Track quality 99.9 % Test CRC 3D15971F Copy CRC 3D15971F Accurately ripped (confidence 6) [6ABE88E6] (AR v2) Copy OK
Track 3
Filename E:\Music\olaf_alien\Sunbirds - Sunbirds (1971, BASF - 2011, Garden Of Delights)\03 - Spanish Sun.wav
Peak level 100.0 % Extraction speed 7.5 X Track quality 100.0 % Test CRC 61876F8B Copy CRC 61876F8B Accurately ripped (confidence 6) [EE05A085] (AR v2) Copy OK
Track 4
Filename E:\Music\olaf_alien\Sunbirds - Sunbirds (1971, BASF - 2011, Garden Of Delights)\04 - Sunshine.wav
Peak level 98.8 % Extraction speed 8.3 X Track quality 100.0 % Test CRC F692A80A Copy CRC F692A80A Accurately ripped (confidence 6) [AE4AAB77] (AR v2) Copy OK
Track 5
Filename E:\Music\olaf_alien\Sunbirds - Sunbirds (1971, BASF - 2011, Garden Of Delights)\05 - Sunbirds.wav
Peak level 98.8 % Extraction speed 9.2 X Track quality 100.0 % Test CRC C1FEBE37 Copy CRC C1FEBE37 Accurately ripped (confidence 6) [0D2C3F90] (AR v2) Copy OK
Track 6
Filename E:\Music\olaf_alien\Sunbirds - Sunbirds (1971, BASF - 2011, Garden Of Delights)\06 - Blues for D.S..wav
Peak level 98.8 % Extraction speed 9.8 X Track quality 100.0 % Test CRC D9B05BDD Copy CRC D9B05BDD Accurately ripped (confidence 6) [2A7253D6] (AR v2) Copy OK
Track 7
Filename E:\Music\olaf_alien\Sunbirds - Sunbirds (1971, BASF - 2011, Garden Of Delights)\07 - Dreams (Bonustrack).wav
Pre-gap length 0:00:03.00
Peak level 98.8 % Extraction speed 10.6 X Track quality 100.0 % Test CRC FF19D79B Copy CRC FF19D79B Accurately ripped (confidence 6) [EA047A82] (AR v2) Copy OK
Track 8
Filename E:\Music\olaf_alien\Sunbirds - Sunbirds (1971, BASF - 2011, Garden Of Delights)\08 - Fire Dance (Bonustrack).wav
Pre-gap length 0:00:03.00
Peak level 100.0 % Extraction speed 11.0 X Track quality 100.0 % Test CRC CDEBF3FE Copy CRC CDEBF3FE Accurately ripped (confidence 6) [FA9C7E6C] (AR v2) Copy OK
All tracks accurately ripped
No errors occurred
End of status report
---- CUETools DB Plugin V2.1.6
[CTDB TOCID: UGu9B.zWqbIW1qcsBJrnhQyEmfE-] foundSubmit result: UGu9B.zWqbIW1qcsBJrnhQyEmfE- has been confirmedTrack | CTDB Status 1 | (9/9) Accurately ripped 2 | (9/9) Accurately ripped 3 | (9/9) Accurately ripped 4 | (9/9) Accurately ripped 5 | (9/9) Accurately ripped 6 | (9/9) Accurately ripped 7 | (9/9) Accurately ripped 8 | (9/9) Accurately ripped
==== Log checksum 77CD9E2B99B156110F3D084B92DB37DBC4EF45FAC651BA4E1F1FF120595597CE ====

Содержание индексной карты (.CUE):

REM GENRE FusionREM DATE 1971REM DISCID 680EBA08REM COMMENT "ExactAudioCopy v1.3"PERFORMER "Sunbirds"TITLE "Sunbirds"REM COMPOSER ""FILE "01 - Kwaeli.wav" WAVE  TRACK 01 AUDIO    TITLE "Kwaeli"    PERFORMER "Sunbirds"    REM COMPOSER ""    INDEX 01 00:00:00FILE "02 - Sunrise.wav" WAVE  TRACK 02 AUDIO    TITLE "Sunrise"    PERFORMER "Sunbirds"    REM COMPOSER ""    INDEX 01 00:00:00FILE "03 - Spanish Sun.wav" WAVE  TRACK 03 AUDIO    TITLE "Spanish Sun"    PERFORMER "Sunbirds"    REM COMPOSER ""    INDEX 01 00:00:00FILE "04 - Sunshine.wav" WAVE  TRACK 04 AUDIO    TITLE "Sunshine"    PERFORMER "Sunbirds"    REM COMPOSER ""    INDEX 01 00:00:00FILE "05 - Sunbirds.wav" WAVE  TRACK 05 AUDIO    TITLE "Sunbirds"    PERFORMER "Sunbirds"    REM COMPOSER ""    INDEX 01 00:00:00FILE "06 - Blues for D.S..wav" WAVE  TRACK 06 AUDIO    TITLE "Blues for D.S."    PERFORMER "Sunbirds"    REM COMPOSER ""    INDEX 01 00:00:00  TRACK 07 AUDIO    TITLE "Dreams (Bonustrack)"    PERFORMER "Sunbirds"    REM COMPOSER ""    INDEX 00 08:01:01FILE "07 - Dreams (Bonustrack).wav" WAVE    INDEX 01 00:00:00  TRACK 08 AUDIO    TITLE "Fire Dance (Bonustrack)"    PERFORMER "Sunbirds"    REM COMPOSER ""    INDEX 00 09:41:67FILE "08 - Fire Dance (Bonustrack).wav" WAVE    INDEX 01 00:00:00

Лог проверки качества

-----------------------
DON'T MODIFY THIS FILE
-----------------------
PERFORMER: auCDtect Task Manager, ver. 1.5.1RC4 build 1.5.1.5Copyright (c) 2008-2010 y-soft. All rights reservedhttp://y-soft.org
ANALYZER: auCDtect: CD records authenticity detector, version 0.8.2Copyright (c) 2004 Oleg Berngardt. All rights reserved.Copyright (c) 2004 Alexander Djourik. All rights reserved.
FILE: 08 - Fire Dance (Bonustrack).flac Size: 41539282 Hash: 12CC0ED0B660C7931990BDD26B8A3ACB Accuracy: -m8 Conclusion: CDDA 100% Signature: E61BBCAFE22AE766EC7461E42A417BDFAFE99A54FILE: 07 - Dreams (Bonustrack).flac Size: 60034915 Hash: 827C4EF0A3C4319DBF22E1B2A31FB711 Accuracy: -m8 Conclusion: CDDA 100% Signature: 3AEFDB8D563F5A56BED6CDF822731DC9BCF1F340FILE: 06 - Blues for D.S..flac Size: 49534431 Hash: 186924157F4A208EDBB008D358B6A771 Accuracy: -m8 Conclusion: CDDA 100% Signature: ADA3C2BFE29ECDA634E7C3ADD8B4D9A0616F0814FILE: 05 - Sunbirds.flac Size: 56818773 Hash: F9E5244F946154FCA389712B5D535062 Accuracy: -m8 Conclusion: CDDA 100% Signature: 6DEA222EDEC5841DF7DF26BBB7FBC2BE91CB514AFILE: 04 - Sunshine.flac Size: 47638632 Hash: 380A4197E34242107BE762D67807A27A Accuracy: -m8 Conclusion: CDDA 100% Signature: 4711F173FB082CFF2C5964519EF84ACAB931DF7FFILE: 03 - Spanish Sun.flac Size: 69808088 Hash: 110D66DD8DE610B7EDD4C09E771A41B3 Accuracy: -m8 Conclusion: CDDA 99% Signature: 9B32FDB3211BAB4D78B8473604E6EB4D7CB496AAFILE: 02 - Sunrise.flac Size: 37622755 Hash: BAB4471E5389FB2F14EC9391CB1F356F Accuracy: -m8 Conclusion: CDDA 100% Signature: 9F8101FB5F2B1F3CEBF983BFFE46DB64625859F5FILE: 01 - Kwaeli.flac Size: 21749030 Hash: ACE4D4DD9F6CD6563F196F9AB5582EB7 Accuracy: -m8 Conclusion: CDDA 42% Signature: 06C64AA8B224EC5AFAB4C6862A13B37ED130B93B

Лог DRM

foobar2000 1.3.16 / Замер динамического диапазона (DR) 1.1.1Дата отчёта:  2018-09-30 12:30:39
--------------------------------------------------------------------------------Анализ: Sunbirds / Sunbirds--------------------------------------------------------------------------------
DR Пики RMS Продолжительность трека--------------------------------------------------------------------------------DR8 -0.10 дБ -9.81 дБ 3:44 01-KwaeliDR9 -0.10 дБ -10.16 дБ 5:35 02-SunriseDR10 0.00 дБ -12.72 дБ 12:17 03-Spanish SunDR8 -0.10 дБ -8.97 дБ 6:54 04-SunshineDR9 -0.10 дБ -13.10 дБ 9:41 05-SunbirdsDR9 -0.10 дБ -10.95 дБ 8:04 06-Blues for D.S.DR10 -0.10 дБ -12.44 дБ 9:45 07-Dreams (Bonustrack)DR11 0.00 дБ -12.42 дБ 6:50 08-Fire Dance (Bonustrack)--------------------------------------------------------------------------------
Количество треков: 8Реальные значения DR: DR9
Частота: 44100 ГцКаналов: 2Разрядность: 16Битрейт: 809 кбит/сКодек: FLAC================================================================================
-

Об альбоме (сборнике):

The fusion group Sunbirds was founded by the jazz musicians Klaus Weiss (drums) and Fritz Pauer (keyboards) in Munich in 1971, when the two of them had already made a name for themselves. They got Ferdinand Povel on flute, Jimmy Woode on bass and the world-famous guitarist Philip Catherine to join them. The band name Sunbirds was Fritz Pauer’s idea, as well as the songs in E major and E minor, carrying titles including the word “sun”. E is the sound representing the sun in esotericism. Due to their good connections, they could soon sign a contract with the then newly-founded BASF label. The LP was released in that same year of 1971, simply under the name of “Sunbirds” (BASF 2021110-2). The two as yet unreleased bonus tracks are from the same master tapes as the LP/CD tracks and were recorded at the same time.
[diregarden.com]

Состав

- Ferdinand Povel / flute
- Philip Catherine / guitar
- Fritz Pauer / piano, organ
- Jimmy Woode / bass
- Klaus Weiss / drums, cymbals

1973 - Zagara (2015, Garden of Delights #CD 174)

Год издания оригинала: 1973, LP Finger/Polydor #2396 101
Год переиздания: 2015
Страна - производитель диска: Germany
Издатель (лейбл): Garden of Delights
Номер по каталогу: CD 174
Продолжительность: 39:56
Источник (релизер): Моя коллекция, мой рип

Трэклист:
1. Fire Dance (4:42)
2. Homecoming (4:08)
3. Ocean Song (4:10)
4. Stillpointing (2:55)
5. Zagara (2:54)
6. My Dear Groovin (4:09)
7. I Don't Need (4:07)
8. African Sun (10:57)
Bonus Track:
9. Mbira (1:51)

Лог создания рипа (30.09.2018)

Exact Audio Copy V1.3 from 2. September 2016
EAC extraction logfile from 30. September 2018, 12:27
Sunbirds / Zagara
Used drive : ATAPI iHAS122 F Adapter: 1 ID: 0
Read mode : SecureUtilize accurate stream : YesDefeat audio cache : YesMake use of C2 pointers : No
Read offset correction : 6Overread into Lead-In and Lead-Out : NoFill up missing offset samples with silence : YesDelete leading and trailing silent blocks : NoNull samples used in CRC calculations : YesUsed interface : Native Win32 interface for Win NT & 2000Gap handling : Appended to previous track
Used output format : User Defined EncoderSelected bitrate : 1024 kBit/sQuality : HighAdd ID3 tag : YesCommand line compressor : C:\Program Files (x86)\Exact Audio Copy\Flac\flac.exeAdditional command line options : -6 -V -T "ARTIST=%artist%" -T "TITLE=%title%" -T "ALBUM=%albumtitle%" -T "DATE=%year%" -T "TRACKNUMBER=%tracknr%" -T "GENRE=%genre%" -T "COMMENT=%comment%" %hascover%--picture="%coverfile%"%hascover% %source% -o %dest%
TOC of the extracted CD
Track | Start | Length | Start sector | End sector --------------------------------------------------------- 1 | 0:00.00 | 4:42.08 | 0 | 21157 2 | 4:42.08 | 4:08.22 | 21158 | 39779 3 | 8:50.30 | 4:10.63 | 39780 | 58592 4 | 13:01.18 | 2:55.00 | 58593 | 71717 5 | 15:56.18 | 2:54.07 | 71718 | 84774 6 | 18:50.25 | 4:09.44 | 84775 | 103493 7 | 22:59.69 | 4:07.43 | 103494 | 122061 8 | 27:07.37 | 10:57.74 | 122062 | 171410 9 | 38:05.36 | 1:51.22 | 171411 | 179757
Track 1
Filename E:\Music\olaf_alien\Sunbirds - Zagara (1973, Finger - 2015, GoD)\01 - Fire Dance.wav
Pre-gap length 0:00:02.00
Peak level 98.8 % Extraction speed 5.2 X Track quality 100.0 % Test CRC 8DDC11C7 Copy CRC 8DDC11C7 Accurately ripped (confidence 5) [2A5B7C60] (AR v2) Copy OK
Track 2
Filename E:\Music\olaf_alien\Sunbirds - Zagara (1973, Finger - 2015, GoD)\02 - Homecoming.wav
Peak level 98.8 % Extraction speed 4.8 X Track quality 99.9 % Test CRC 4115371C Copy CRC 4115371C Accurately ripped (confidence 5) [05E2394C] (AR v2) Copy OK
Track 3
Filename E:\Music\olaf_alien\Sunbirds - Zagara (1973, Finger - 2015, GoD)\03 - Ocean Song.wav
Peak level 98.8 % Extraction speed 6.3 X Track quality 100.0 % Test CRC BB093278 Copy CRC BB093278 Accurately ripped (confidence 5) [9AD557BF] (AR v2) Copy OK
Track 4
Filename E:\Music\olaf_alien\Sunbirds - Zagara (1973, Finger - 2015, GoD)\04 - Stillpointing.wav
Peak level 98.8 % Extraction speed 6.3 X Track quality 100.0 % Test CRC CC0B4204 Copy CRC CC0B4204 Accurately ripped (confidence 5) [BDC478E7] (AR v2) Copy OK
Track 5
Filename E:\Music\olaf_alien\Sunbirds - Zagara (1973, Finger - 2015, GoD)\05 - Zagara.wav
Peak level 98.8 % Extraction speed 6.6 X Track quality 100.0 % Test CRC E31533D8 Copy CRC E31533D8 Accurately ripped (confidence 5) [43292502] (AR v2) Copy OK
Track 6
Filename E:\Music\olaf_alien\Sunbirds - Zagara (1973, Finger - 2015, GoD)\06 - My Dear Groovin.wav
Peak level 98.8 % Extraction speed 7.3 X Track quality 100.0 % Test CRC A916EE10 Copy CRC A916EE10 Accurately ripped (confidence 5) [D1766144] (AR v2) Copy OK
Track 7
Filename E:\Music\olaf_alien\Sunbirds - Zagara (1973, Finger - 2015, GoD)\07 - I Don't Need.wav
Peak level 98.8 % Extraction speed 7.6 X Track quality 100.0 % Test CRC 68604C84 Copy CRC 68604C84 Accurately ripped (confidence 5) [0C23D3E5] (AR v2) Copy OK
Track 8
Filename E:\Music\olaf_alien\Sunbirds - Zagara (1973, Finger - 2015, GoD)\08 - African Sun.wav
Peak level 98.8 % Extraction speed 8.3 X Track quality 99.9 % Test CRC 77ACC9B8 Copy CRC 77ACC9B8 Accurately ripped (confidence 5) [EBF2EBBA] (AR v2) Copy OK
Track 9
Filename E:\Music\olaf_alien\Sunbirds - Zagara (1973, Finger - 2015, GoD)\09 - Mbira [Bonus Track].wav
Pre-gap length 0:00:02.00
Peak level 48.4 % Extraction speed 7.6 X Track quality 100.0 % Test CRC 75BB010D Copy CRC 75BB010D Accurately ripped (confidence 5) [A86C5E69] (AR v2) Copy OK
All tracks accurately ripped
No errors occurred
End of status report
---- CUETools DB Plugin V2.1.6
[CTDB TOCID: WQTAlff5AlDwvvOCF3DGeq55Ry0-] foundSubmit result: WQTAlff5AlDwvvOCF3DGeq55Ry0- has been confirmedTrack | CTDB Status 1 | (6/6) Accurately ripped 2 | (6/6) Accurately ripped 3 | (6/6) Accurately ripped 4 | (6/6) Accurately ripped 5 | (6/6) Accurately ripped 6 | (6/6) Accurately ripped 7 | (6/6) Accurately ripped 8 | (6/6) Accurately ripped 9 | (6/6) Accurately ripped
==== Log checksum B4872B831B784CCBFBF49B9457FD93630150B89E5947ADA75CDC7421FA12AD30 ====

Содержание индексной карты (.CUE):

REM GENRE "Jazz Rock/Fusion"REM DATE 1973REM DISCID 7B095C09REM COMMENT "ExactAudioCopy v1.3"PERFORMER "Sunbirds"TITLE "Zagara"REM COMPOSER ""FILE "01 - Fire Dance.wav" WAVE  TRACK 01 AUDIO    TITLE "Fire Dance"    PERFORMER "Sunbirds"    REM COMPOSER ""    INDEX 01 00:00:00FILE "02 - Homecoming.wav" WAVE  TRACK 02 AUDIO    TITLE "Homecoming"    PERFORMER "Sunbirds"    REM COMPOSER ""    INDEX 01 00:00:00FILE "03 - Ocean Song.wav" WAVE  TRACK 03 AUDIO    TITLE "Ocean Song"    PERFORMER "Sunbirds"    REM COMPOSER ""    INDEX 01 00:00:00FILE "04 - Stillpointing.wav" WAVE  TRACK 04 AUDIO    TITLE "Stillpointing"    PERFORMER "Sunbirds"    REM COMPOSER ""    INDEX 01 00:00:00FILE "05 - Zagara.wav" WAVE  TRACK 05 AUDIO    TITLE "Zagara"    PERFORMER "Sunbirds"    REM COMPOSER ""    INDEX 01 00:00:00FILE "06 - My Dear Groovin.wav" WAVE  TRACK 06 AUDIO    TITLE "My Dear Groovin"    PERFORMER "Sunbirds"    REM COMPOSER ""    INDEX 01 00:00:00FILE "07 - I Don't Need.wav" WAVE  TRACK 07 AUDIO    TITLE "I Don't Need"    PERFORMER "Sunbirds"    REM COMPOSER ""    INDEX 01 00:00:00FILE "08 - African Sun.wav" WAVE  TRACK 08 AUDIO    TITLE "African Sun"    PERFORMER "Sunbirds"    REM COMPOSER ""    INDEX 01 00:00:00  TRACK 09 AUDIO    TITLE "Mbira [Bonus Track]"    PERFORMER "Sunbirds"    REM COMPOSER ""    INDEX 00 10:55:74FILE "09 - Mbira [Bonus Track].wav" WAVE    INDEX 01 00:00:00

Лог проверки качества

-----------------------
DON'T MODIFY THIS FILE
-----------------------
PERFORMER: auCDtect Task Manager, ver. 1.5.1RC4 build 1.5.1.5Copyright (c) 2008-2010 y-soft. All rights reservedhttp://y-soft.org
ANALYZER: auCDtect: CD records authenticity detector, version 0.8.2Copyright (c) 2004 Oleg Berngardt. All rights reserved.Copyright (c) 2004 Alexander Djourik. All rights reserved.
FILE: 09 - Mbira [Bonus Track].flac Size: 4230009 Hash: A3A97D800F00F7DD64FA1938496BE4F9 Accuracy: -m8 Conclusion: CDDA 100% Signature: 7F1ADD75BF5F182475317BBB6BD76B2206A0EFAAFILE: 08 - African Sun.flac Size: 71336706 Hash: D13804CE1D5422500228B91FA76B95D5 Accuracy: -m8 Conclusion: CDDA 54% Signature: 3C11526F7BBB99B3DB3768A33DD136DE2786ED9BFILE: 07 - I Don't Need.flac Size: 25981882 Hash: 6BCAA441AFEA0A2F9479D8A21C3F30CF Accuracy: -m8 Conclusion: MPEG 93% Signature: B5C934C2C5D331F888F15165A5DB017592A61733FILE: 06 - My Dear Groovin.flac Size: 25854228 Hash: BC3BDA5A3ADC56AD5A4DD40F7D37DD3C Accuracy: -m8 Conclusion: CDDA 49% Signature: 28CAC0517BE10D51EA797ACDD0586F49731C19C0FILE: 05 - Zagara.flac Size: 16885488 Hash: C994DC47EC16191D23443E6F2606F351 Accuracy: -m8 Conclusion: CDDA 49% Signature: E74055A6BBD794404C7FEE98469D92AFD40C8C5BFILE: 04 - Stillpointing.flac Size: 16600085 Hash: B1BF2FEED1B8BD8BA46803B0373D726D Accuracy: -m8 Conclusion: CDDA 100% Signature: CAE9E6EAFFE72E4C148C9121FDA74D66167CC4CBFILE: 03 - Ocean Song.flac Size: 26379258 Hash: FF96F2F54CA9CBFBDD7CD85C15600552 Accuracy: -m8 Conclusion: CDDA 85% Signature: B4498A6AE88620638857BA9731A8083434DC0648FILE: 02 - Homecoming.flac Size: 26545085 Hash: 23E7AC208A167CB4045CA30A8C42E3F4 Accuracy: -m8 Conclusion: CDDA 100% Signature: FD3251AD3C5F0317BBC6BB00CB58BB3955C4CA25FILE: 01 - Fire Dance.flac Size: 32342567 Hash: A3A0B072269727B6AFA7B45AA33C2F8C Accuracy: -m8 Conclusion: CDDA 100% Signature: 14A84186457ACF1C821C26CFE4E64FA6B25E1E85

Скриншоты спектров

Лог DRM

foobar2000 1.3.16 / Замер динамического диапазона (DR) 1.1.1Дата отчёта:  2018-09-30 12:30:54
--------------------------------------------------------------------------------Анализ: Sunbirds / Zagara--------------------------------------------------------------------------------
DR Пики RMS Продолжительность трека--------------------------------------------------------------------------------DR9 -0.10 дБ -10.29 дБ 4:42 01-Fire DanceDR10 -0.10 дБ -12.01 дБ 4:08 02-HomecomingDR8 -0.10 дБ -9.75 дБ 4:11 03-Ocean SongDR9 -0.10 дБ -12.26 дБ 2:55 04-StillpointingDR9 -0.10 дБ -11.32 дБ 2:54 05-ZagaraDR7 -0.10 дБ -9.29 дБ 4:10 06-My Dear GroovinDR8 -0.10 дБ -10.05 дБ 4:08 07-I Don't NeedDR9 -0.10 дБ -11.47 дБ 10:58 08-African SunDR15 -6.30 дБ -27.39 дБ 1:51 09-Mbira [Bonus Track]--------------------------------------------------------------------------------
Количество треков: 9Реальные значения DR: DR9
Частота: 44100 ГцКаналов: 2Разрядность: 16Битрейт: 303 кбит/сКодек: FLAC================================================================================
-

Об альбоме (сборнике):

Fusion from Munich, some smoothly relaxed kind of music with Latin influences. After the first Sunbirds LP from 1971, with Philip Catherine on guitar, the album at hand is the band's second and last one, recorded in 1972 and released in 1973 (Finger 2396101). It is the first CD version, drawn from the master tapes, including the bonus track "Mbira" which was then recorded during the same session. All of the musicians were masters of their trade. Drummer Klaus Weiss, keyboardist Fritz Pauer and bassists Jimmy Woode and Ron Carter were world-famous even back then, and the others were in no way inferior. The nine artists were so skilled that nearly all recordings were perfect at the first attempt. Unfortunately, the two studio albums should remain the band's only releases. There weren't any Sunbirds gigs for lack of time.
[diregarden.com]

Состав

- Jimmy Woode / Bass (1,3,5-8)
- Ron Carter / Bass (1,6,7)
- Norman Tolbert / Congas (1,3,5-8)
- Klaus Weiss / Drums
- Fritz Pauer / Electric Piano, Piano, Organ
- Leschek Zadlo / Flute (1,3,5-8)
- Ferdinand Povel / Flute, Alto Flute
- Lucas Costa / Guitar (1,3,5-8)

Вы не можете начинать темы
Вы не можете отвечать на сообщения
Вы не можете редактировать свои сообщения
Вы не можете удалять свои сообщения
Вы не можете голосовать в опросах
Вы не можете прикреплять файлы к сообщениям
Вы можете скачивать файлы
!ВНИМАНИЕ!

Сайт не предоставляет электронные версии произведений, а занимается лишь коллекционированием и каталогизацией ссылок, присылаемых и публикуемых на форуме нашими читателями. Если вы являетесь правообладателем какого-либо представленного материала и не желаете, чтобы ссылка на него находилась в нашем каталоге, свяжитесь с нами, и мы незамедлительно удалим ее. Файлы для обмена на трекере предоставлены пользователями сайта, и администрация не несет ответственности за их содержание. Просьба не заливать файлы, защищенные авторскими правами, а также файлы нелегального содержания!

Искали программы, игры, дополнения, музыка mp3, аниме, аудио книги, журналы? Добро пожаловать на свободный торрент трекер Torrents, у нас можно скачать бесплатно, без смс и регистрации и прочих ограничений лучшие, отборные сборки программ, игр. Скачать торрентом не составит труда даже не опытному пользователю. Раздачи ежедневно обновляются, только лучшие и качественные раздачи, подробные описания и скриншоты. Огромная коллекция программ для работы со звуком, графикой, дизайном, а так же множество плагинов и инструментов к ним с подробной инструкцией и рекомендациями. Прошивки для навигаторов, карты. Разнообразные игры, для Windows, Linux. В коллекцие есть и старые игры любых жанров, Rpg, Action, Shooter, strategy Множество дополнений, модификаций, сценариев для популярных игр в жанре экш, рпг, гонки, стратегии, логические игры. Множество аддонов и сценариев для Microsoft Flight Simulator Большая коллекция книг, учебников. Если нет возможности купить печатное издание - смело скачивайте цифровую версию книги или, быть может, журнала. Не любите читать - можно загрузить бесплатно аудикнигу. Для веб дизайнеров и программистов так же найдется множество специализированного софта, таких как: редакторы с подсветкой, среды программирования, компоненты, системы управления базами данных, разнообразные скрипты и шаблоны. Не так давно у нас появился материал для автолюбителей и владельцев мото - оригинальные и неоригинальные каталоги запчастей, книги и журналы по ремонту и обслуживанию, видеоуроки, статьи по чип тюнингу, прошивкам. Процедура получения контента элементарная, достаточно просто скачать торрент файл и добавить его в загрузку в вашем торрент клиенте. Если у вас нет специального торрент клиента, вы можете его скачать у нас.