(Classic Rock/Hard Rock/Progressive Rock) [WEB] White Coven - Overseas - 2018, FLAC (tracks), lossless 

Цитировать
White Coven / Overseas
Жанр: Classic Rock/Hard Rock/Progressive Rock
Носитель: WEB
Год издания: 2018
Страна исполнителя (группы): Spain
Аудиокодек: FLAC (*.flac)
Тип рипа: tracks
Битрейт аудио: lossless
Продолжительность: 50:40
Источник (релизер): Bandcamp
Наличие сканов в содержимом раздачи: нет

01. Woman [00:04:28]
02. Brief old tale [00:04:30]
03. Moonroom [00:06:38]
04. Farewell [00:04:32]
05. The razorback (instrumental) [00:03:24]
06. Your time is over [00:04:24]
07. Sedative [00:06:36]
08. Coven [00:05:05]
09. Overseas [00:10:59]
Released October 20, 2018

Состав

Sara Lapiedra - Vocals
Mario Gutierrez - Rhythm and Solo Guitar
Juan Cervera - Rhythm and Solo Guitar, Backing Vocals
R. David Bueicheku - Rhythm and Solo Guitar, Backing Vocals
Carlos Viejo - Bass
Daniel Penón - Drums, Percussion
Josete Melendez - Keyboards, Organ and Piano
Higinio Muñoz - Brass arrangements and Trombone in ‘Your Time Is Over’
Julio Bona - Saxophone in ‘Your Time Is Over’
Armando Miñana - Trumpet in ‘Your Time Is Over’
Nuria Gracia - Backing Vocals
Christina Healy - Malleus Maleficarum speech in ‘Coven’
Héctor Vera - Percussion in ‘Your Time Is Over’

Лог проверки качества

-----------------------
DON'T MODIFY THIS FILE
-----------------------
PERFORMER: auCDtect Task Manager, ver. 1.6.0 RC1 build 1.6.0.1Copyright (c) 2008-2010 y-soft. All rights reservedhttp://y-soft.org
ANALYZER: auCDtect: CD records authenticity detector, version 0.8.2Copyright (c) 2004 Oleg Berngardt. All rights reserved.Copyright (c) 2004 Alexander Djourik. All rights reserved.
FILE: 09. Overseas.flac Size: 66653060 Hash: EA9D6FFA809F3D8E945111C6ACC82CD9 Accuracy: -m0 Conclusion: CDDA 99% Signature: 3D59AEAC472B3FECF0608166B7E4EF6F2ACA7272FILE: 08. Coven.flac Size: 33353013 Hash: 6F0B4A59ED6EEFCCDD7315AE98F0BED3 Accuracy: -m0 Conclusion: CDDA 100% Signature: 40B64E9104F65DB2F6E5C8F90878EC562BBC3132FILE: 07. Sedative.flac Size: 42908794 Hash: D057DC8250191FC1B9F64484A21C5D0D Accuracy: -m0 Conclusion: CDDA 100% Signature: 69C47404018451AD8F02CF9E14E2CCAB0B38D4D3FILE: 06. Your time is over.flac Size: 30468045 Hash: 669C8B8538BE7AE05348AA5590018824 Accuracy: -m0 Conclusion: CDDA 100% Signature: 3F716AD10131ACB2F2B5101C114B1A5A8D8B1AA3FILE: 05. The razorback (instrumental).flac Size: 23340794 Hash: 4C3158FB7F9518A3CF463025A82AD5F5 Accuracy: -m0 Conclusion: CDDA 100% Signature: 4438F04BC6B156A9C176314B18954432508D0057FILE: 04. Farewell.flac Size: 28647387 Hash: 0FF60E8BBC12D81D06E69C4843A87249 Accuracy: -m0 Conclusion: CDDA 100% Signature: 38AAFEA9AC5B7F73ABC56417B75FD720C101405AFILE: 03. Moonroom.flac Size: 39026573 Hash: 88C000166222D3D21ECBA8111C3E8470 Accuracy: -m0 Conclusion: CDDA 100% Signature: ABEDD82EA6B69D55FAC635DA1F3CBA3B789A9BB0FILE: 02. Brief old tale.flac Size: 31093674 Hash: 24CF058429337019856E6788E9239EFD Accuracy: -m0 Conclusion: CDDA 100% Signature: EAF2A2D97626BE09B2FCF1D06AD5A362B61FADC9FILE: 01. Woman.flac Size: 27965697 Hash: AF1627C0136C25EF45912C42AD854C10 Accuracy: -m0 Conclusion: CDDA 100% Signature: F1B71C46CA4773D047E56A817F56FF0A746436D9

DRM log

foobar2000 1.3.12 / Dynamic Range Meter 1.1.1log date: 2018-10-22 07:04:15
--------------------------------------------------------------------------------Analyzed: White Coven / Overseas--------------------------------------------------------------------------------
DR Peak RMS Duration Track--------------------------------------------------------------------------------DR8 -0.05 dB -10.30 dB 4:28 01-WomanDR7 -0.04 dB -9.17 dB 4:31 02-Brief old taleDR8 -0.03 dB -10.98 dB 6:38 03-MoonroomDR9 -0.03 dB -10.47 dB 4:32 04-FarewellDR9 -0.04 dB -10.68 dB 3:25 05-The razorback (instrumental)DR8 -0.01 dB -10.54 dB 4:24 06-Your time is overDR8 -0.03 dB -10.44 dB 6:37 07-SedativeDR7 -0.02 dB -9.03 dB 5:06 08-CovenDR8 -0.01 dB -11.62 dB 11:00 09-Overseas--------------------------------------------------------------------------------
Number of tracks: 9Official DR value: DR8
Samplerate: 44100 HzChannels: 2Bits per sample: 16Bitrate: 806 kbpsCodec: FLAC================================================================================
Вы не можете начинать темы
Вы не можете отвечать на сообщения
Вы не можете редактировать свои сообщения
Вы не можете удалять свои сообщения
Вы не можете голосовать в опросах
Вы не можете прикреплять файлы к сообщениям
Вы можете скачивать файлы
!ВНИМАНИЕ!

Сайт не предоставляет электронные версии произведений, а занимается лишь коллекционированием и каталогизацией ссылок, присылаемых и публикуемых на форуме нашими читателями. Если вы являетесь правообладателем какого-либо представленного материала и не желаете, чтобы ссылка на него находилась в нашем каталоге, свяжитесь с нами, и мы незамедлительно удалим ее. Файлы для обмена на трекере предоставлены пользователями сайта, и администрация не несет ответственности за их содержание. Просьба не заливать файлы, защищенные авторскими правами, а также файлы нелегального содержания!

Искали программы, игры, дополнения, музыка mp3, аниме, аудио книги, журналы? Добро пожаловать на свободный торрент трекер Torrents, у нас можно скачать бесплатно, без смс и регистрации и прочих ограничений лучшие, отборные сборки программ, игр. Скачать торрентом не составит труда даже не опытному пользователю. Раздачи ежедневно обновляются, только лучшие и качественные раздачи, подробные описания и скриншоты. Огромная коллекция программ для работы со звуком, графикой, дизайном, а так же множество плагинов и инструментов к ним с подробной инструкцией и рекомендациями. Прошивки для навигаторов, карты. Разнообразные игры, для Windows, Linux. В коллекцие есть и старые игры любых жанров, Rpg, Action, Shooter, strategy Множество дополнений, модификаций, сценариев для популярных игр в жанре экш, рпг, гонки, стратегии, логические игры. Множество аддонов и сценариев для Microsoft Flight Simulator Большая коллекция книг, учебников. Если нет возможности купить печатное издание - смело скачивайте цифровую версию книги или, быть может, журнала. Не любите читать - можно загрузить бесплатно аудикнигу. Для веб дизайнеров и программистов так же найдется множество специализированного софта, таких как: редакторы с подсветкой, среды программирования, компоненты, системы управления базами данных, разнообразные скрипты и шаблоны. Не так давно у нас появился материал для автолюбителей и владельцев мото - оригинальные и неоригинальные каталоги запчастей, книги и журналы по ремонту и обслуживанию, видеоуроки, статьи по чип тюнингу, прошивкам. Процедура получения контента элементарная, достаточно просто скачать торрент файл и добавить его в загрузку в вашем торрент клиенте. Если у вас нет специального торрент клиента, вы можете его скачать у нас.