(Progressive Rock) [WEB] Grey Czar - Boondoggle - 2018, FLAC (tracks), lossless 

Цитировать
-Grey Czar / Boondoggle- -
Жанр: Progressive Rock
Носитель: WEB
Год издания: 2018
Страна исполнителя (группы): Austria
Аудиокодек: FLAC (*.flac)
Тип рипа: tracks
Битрейт аудио: lossless
Продолжительность: 46:44
Источник (релизер): bandcamp
Наличие сканов в содержимом раздачи: нет 01. Age of Man (3:15)
02. Fire Water Holy Ghost (4:59)
03. Profession of Faith (3:46)
04. Weight of Worlds (3:45)
05. Thunder Bay (4:19)
06. Forlorn March (3:04)
07. Sail Away (4:32)
08. White Velvet (4:34)
09. Create Break or Animate (5:15)
10. Vast Empyrean (3:45)
11. Everqueen (2:31)
12. Deep Sea (2:58)

Лог проверки качества

-----------------------
DON'T MODIFY THIS FILE
-----------------------
PERFORMER: auCDtect Task Manager, ver. 1.6.0 RC1 build 1.6.0.1Copyright (c) 2008-2010 y-soft. All rights reservedhttp://y-soft.org
ANALYZER: auCDtect: CD records authenticity detector, version 0.8.2Copyright (c) 2004 Oleg Berngardt. All rights reserved.Copyright (c) 2004 Alexander Djourik. All rights reserved.
FILE: 12. Deep Sea.flac Size: 15138203 Hash: CFE19AC9AFC4BCAC84D78A76A140B2CF Accuracy: -m0 Conclusion: CDDA 100% Signature: 633DE7B14C657CED43A9D7755D34FC102C019A79FILE: 11. Everqueen.flac Size: 20360439 Hash: 018D9AA5FE6F662F15268A6058C50F08 Accuracy: -m0 Conclusion: CDDA 100% Signature: 2EA046169291CDFE2B0B578B8EF81F1E4A276D2DFILE: 10. Vast Empyrean.flac Size: 29233722 Hash: 33DBD69538A28983CCABEE9A953087A0 Accuracy: -m0 Conclusion: CDDA 100% Signature: 86289DA77B59156FB17F7DBAA6EF9DD04FA3B99EFILE: 09. Create Break or Animate.flac Size: 38699991 Hash: 75DDF2C3FDB64A6A65BA3351E679D1A1 Accuracy: -m0 Conclusion: CDDA 100% Signature: C0A7C91267C35C7A8A632AA4848B907EFD3D35F0FILE: 08. White Velvet.flac Size: 32951750 Hash: E88AB80E96E94168355754471923B196 Accuracy: -m0 Conclusion: CDDA 99% Signature: 82EDD8701134A7881F8869D888111A8F10043A7EFILE: 07. Sail Away.flac Size: 34764851 Hash: 6729A4A99A179E1015D1D225159D54B9 Accuracy: -m0 Conclusion: CDDA 100% Signature: 6C791BCD5B28BF8433CBF74D07A675E6FDCC321DFILE: 06. Forlorn March.flac Size: 17953591 Hash: 3E82042D1866FD64629AFD66C81A26EE Accuracy: -m0 Conclusion: CDDA 100% Signature: 1AF0BF0771749147E92D0C368675BD5854586E9AFILE: 05. Thunder Bay.flac Size: 32919628 Hash: 1E88A75990540F5B9652059D98FEAEC3 Accuracy: -m0 Conclusion: CDDA 100% Signature: F4AAD8206CEA5277F130E4EAA1047F5784941609FILE: 04. Weight of Worlds.flac Size: 23217211 Hash: 53AC0A1CDDF301F53BB63A3227184B9D Accuracy: -m0 Conclusion: CDDA 100% Signature: A59D959AA22B8CB6AA546D98577727F34F2511A0FILE: 03. Profession of Faith.flac Size: 29208119 Hash: A25989F55F498245074B2751FC04162D Accuracy: -m0 Conclusion: MPEG 95% Signature: E19EE210C7B78D22D56395AA0C832AC19FDBCCB3FILE: 02. Fire Water Holy Ghost.flac Size: 37904582 Hash: 577C7ED8320F86B07B54CA7D4CE30F06 Accuracy: -m0 Conclusion: CDDA 100% Signature: 24E9997452B4122B41B4734EA4B55FB2B242EBC2FILE: 01. Age of Man.flac Size: 25582270 Hash: 2FACED806E9085261DB266DBACBFD96A Accuracy: -m0 Conclusion: CDDA 100% Signature: 25FF0836BDE4DD9569C5A5D8DEBC69D638451605

Скриншот спектра частот

Лог DRM

foobar2000 1.3.9 / Dynamic Range Meter 1.1.1log date: 2018-10-15 23:10:38
--------------------------------------------------------------------------------Analyzed: Grey Czar / Boondoggle--------------------------------------------------------------------------------
DR Peak RMS Duration Track--------------------------------------------------------------------------------DR6 -0.30 dB -8.09 dB 3:15 01-Age of ManDR6 -0.30 dB -7.92 dB 4:59 02-Fire Water Holy GhostDR6 -0.30 dB -8.07 dB 3:46 03-Profession of FaithDR6 -0.30 dB -9.34 dB 3:45 04-Weight of WorldsDR6 -0.30 dB -7.64 dB 4:19 05-Thunder BayDR7 -0.30 dB -11.54 dB 3:04 06-Forlorn MarchDR7 -0.20 dB -8.08 dB 4:32 07-Sail AwayDR6 0.00 dB -9.31 dB 4:34 08-White VelvetDR7 -0.30 dB -8.51 dB 5:15 09-Create Break or AnimateDR6 -0.30 dB -7.83 dB 3:45 10-Vast EmpyreanDR6 -0.30 dB -6.71 dB 2:31 11-EverqueenDR10 -0.30 dB -13.52 dB 2:58 12-Deep Sea--------------------------------------------------------------------------------
Number of tracks: 12Official DR value: DR6
Samplerate: 44100 HzChannels: 2Bits per sample: 16Bitrate: 669 kbpsCodec: FLAC================================================================================
--

Об альбоме (сборнике)

"Once upon a time the boondoggle was a sign of accomplishment, a small but meaningful ornamental piece of leather.
Sadly it has lost it's shimmer, today the boondoggle is used to describe unnecessary and wasteful ventures. Now more
than ever it appears to be a symbol of our times. But for us the Boondoggle still stands for a great achievement."

Состав

Roland Hickmann - vocals/guitar/percussion
Florian Primavesi - vocals/guitar/keys
Wolfgang Brunauer - vocals/bass
Wolfgang Ruppitsch - drums/percussion
Вы не можете начинать темы
Вы не можете отвечать на сообщения
Вы не можете редактировать свои сообщения
Вы не можете удалять свои сообщения
Вы не можете голосовать в опросах
Вы не можете прикреплять файлы к сообщениям
Вы можете скачивать файлы
!ВНИМАНИЕ!

Сайт не предоставляет электронные версии произведений, а занимается лишь коллекционированием и каталогизацией ссылок, присылаемых и публикуемых на форуме нашими читателями. Если вы являетесь правообладателем какого-либо представленного материала и не желаете, чтобы ссылка на него находилась в нашем каталоге, свяжитесь с нами, и мы незамедлительно удалим ее. Файлы для обмена на трекере предоставлены пользователями сайта, и администрация не несет ответственности за их содержание. Просьба не заливать файлы, защищенные авторскими правами, а также файлы нелегального содержания!

Искали программы, игры, дополнения, музыка mp3, аниме, аудио книги, журналы? Добро пожаловать на свободный торрент трекер Torrents, у нас можно скачать бесплатно, без смс и регистрации и прочих ограничений лучшие, отборные сборки программ, игр. Скачать торрентом не составит труда даже не опытному пользователю. Раздачи ежедневно обновляются, только лучшие и качественные раздачи, подробные описания и скриншоты. Огромная коллекция программ для работы со звуком, графикой, дизайном, а так же множество плагинов и инструментов к ним с подробной инструкцией и рекомендациями. Прошивки для навигаторов, карты. Разнообразные игры, для Windows, Linux. В коллекцие есть и старые игры любых жанров, Rpg, Action, Shooter, strategy Множество дополнений, модификаций, сценариев для популярных игр в жанре экш, рпг, гонки, стратегии, логические игры. Множество аддонов и сценариев для Microsoft Flight Simulator Большая коллекция книг, учебников. Если нет возможности купить печатное издание - смело скачивайте цифровую версию книги или, быть может, журнала. Не любите читать - можно загрузить бесплатно аудикнигу. Для веб дизайнеров и программистов так же найдется множество специализированного софта, таких как: редакторы с подсветкой, среды программирования, компоненты, системы управления базами данных, разнообразные скрипты и шаблоны. Не так давно у нас появился материал для автолюбителей и владельцев мото - оригинальные и неоригинальные каталоги запчастей, книги и журналы по ремонту и обслуживанию, видеоуроки, статьи по чип тюнингу, прошивкам. Процедура получения контента элементарная, достаточно просто скачать торрент файл и добавить его в загрузку в вашем торрент клиенте. Если у вас нет специального торрент клиента, вы можете его скачать у нас.