(Folk Rock / Prog Related) [CD] Comunidade S8 - Apelo a Terra - 1983 (1998), FLAC (tracks+.cue), lossless 

Цитировать
Comunidade S8 / Apelo à Terra
Жанр: Folk Rock / Prog Related
Носитель: CD
Страна-производитель диска и страна группы: Brazil
Год издания: 1983 (1998)
Издатель (лейбл): Trace Disc Multimídia Ltda.
Номер по каталогу: S8CD-004
Аудиокодек: FLAC (*.flac)
Тип рипа: tracks+.cue
Битрейт аудио: lossless
Продолжительность: 36:57
Источник: what.cd
Наличие сканов в содержимом раздачи: да
Треклист:
1. Apelo à Terra 3:18
2. Jesus é a Porta 3:48
3. Jesus é a Palavra Viva 2:18
4. Jesus é o Amigo 4:23
5. Jesus é a Rocha 3:19
6. Jesus é a Realidade 4:36
7. Jesus é a Salvação 4:15
8. Jesus Querido 5:18
9. Jesus é o Amor 2:51
10. Jesus é o Socorro 2:46

Лог создания рипа

Exact Audio Copy V1.0 beta 3 from 29. August 2011
EAC extraction logfile from 13. December 2011, 21:49
Comunidade S8 / Apelo a Terra
Used drive : ATAPI iHAS324 Y Adapter: 4 ID: 0
Read mode : SecureUtilize accurate stream : YesDefeat audio cache : YesMake use of C2 pointers : No
Read offset correction : 48Overread into Lead-In and Lead-Out : NoFill up missing offset samples with silence : YesDelete leading and trailing silent blocks : NoNull samples used in CRC calculations : YesUsed interface : Native Win32 interface for Win NT & 2000Gap handling : Appended to previous track
Used output format : User Defined EncoderSelected bitrate : 896 kBit/sQuality : HighAdd ID3 tag : NoCommand line compressor : C:\Program Files\Exact Audio Copy\flac.exeAdditional command line options : -8 -V -T "ARTIST=%artist%" -T "TITLE=%title%" -T "ALBUM=%albumtitle%" -T "DATE=%year%" -T "TRACKNUMBER=%tracknr%" -T "GENRE=%genre%" -T "PERFORMER=%albuminterpret%" -T "COMPOSER=%composer%" %haslyrics%--tag-from-file=LYRICS="%lyricsfile%"%haslyrics% -T "ALBUMARTIST=%albumartist%" -T "DISCNUMBER=%cdnumber%" -T "TOTALDISCS=%totalcds%" -T "TOTALTRACKS=%numtracks%" -T "COMMENT=%comment%" %source% -o %dest%
TOC of the extracted CD
Track | Start | Length | Start sector | End sector --------------------------------------------------------- 1 | 0:00.00 | 3:18.15 | 0 | 14864 2 | 3:18.15 | 3:48.46 | 14865 | 32010 3 | 7:06.61 | 2:18.29 | 32011 | 42389 4 | 9:25.15 | 4:23.45 | 42390 | 62159 5 | 13:48.60 | 3:19.45 | 62160 | 77129 6 | 17:08.30 | 4:36.73 | 77130 | 97902 7 | 21:45.28 | 4:15.01 | 97903 | 117028 8 | 26:00.29 | 5:18.49 | 117029 | 140927 9 | 31:19.03 | 2:51.16 | 140928 | 153768 10 | 34:10.19 | 2:46.38 | 153769 | 166256
Track 1
Filename C:\EAC\01 - Apelo a Terra.wav
Pre-gap length 0:00:02.00
Peak level 100.0 % Extraction speed 1.9 X Track quality 99.9 % Test CRC ECDE2A1E Copy CRC ECDE2A1E Track not present in AccurateRip database Copy OK
Track 2
Filename C:\EAC\02 - Jesus e a Porta.wav
Pre-gap length 0:00:01.45
Peak level 100.0 % Extraction speed 2.5 X Track quality 100.0 % Test CRC 7DB2D4F5 Copy CRC 7DB2D4F5 Track not present in AccurateRip database Copy OK
Track 3
Filename C:\EAC\03 - Jesus e a Palavra Viva.wav
Pre-gap length 0:00:01.45
Peak level 100.0 % Extraction speed 2.4 X Track quality 100.0 % Test CRC E4E36E65 Copy CRC E4E36E65 Track not present in AccurateRip database Copy OK
Track 4
Filename C:\EAC\04 - Jesus e o Amigo.wav
Pre-gap length 0:00:01.45
Peak level 100.0 % Extraction speed 2.6 X Track quality 99.9 % Test CRC 6458E51E Copy CRC 6458E51E Track not present in AccurateRip database Copy OK
Track 5
Filename C:\EAC\05 - Jesus e s Rocha.wav
Pre-gap length 0:00:01.45
Peak level 100.0 % Extraction speed 3.0 X Track quality 100.0 % Test CRC 2264F309 Copy CRC 2264F309 Track not present in AccurateRip database Copy OK
Track 6
Filename C:\EAC\06 - Jesus e a Realidade.wav
Pre-gap length 0:00:01.45
Peak level 100.0 % Extraction speed 3.4 X Track quality 100.0 % Test CRC 26A9A67B Copy CRC 26A9A67B Track not present in AccurateRip database Copy OK
Track 7
Filename C:\EAC\07 - Jesus e a Salvacao.wav
Pre-gap length 0:00:01.45
Peak level 100.0 % Extraction speed 3.6 X Track quality 100.0 % Test CRC 41621551 Copy CRC 41621551 Track not present in AccurateRip database Copy OK
Track 8
Filename C:\EAC\08 - Jesus Querido.wav
Pre-gap length 0:00:01.45
Peak level 100.0 % Extraction speed 3.9 X Track quality 100.0 % Test CRC 85689AC9 Copy CRC 85689AC9 Track not present in AccurateRip database Copy OK
Track 9
Filename C:\EAC\09 - Jesus e o Amor.wav
Pre-gap length 0:00:01.45
Peak level 100.0 % Extraction speed 3.7 X Track quality 100.0 % Test CRC A541C09B Copy CRC A541C09B Track not present in AccurateRip database Copy OK
Track 10
Filename C:\EAC\10 - Jesus e o Socorro.wav
Pre-gap length 0:00:01.45
Peak level 99.9 % Extraction speed 3.8 X Track quality 100.0 % Test CRC 4B7FA189 Copy CRC 4B7FA189 Track not present in AccurateRip database Copy OK
None of the tracks are present in the AccurateRip database
No errors occurred
End of status report
==== Log checksum E2379FF373F076ACB47BFCBEF6BB40A4ECEEA6959AAAB7102A0BB435BADD5CCB ====

Содержание индексной карты (.CUE)

REM GENRE "Folk Rock / Prog Related"REM DATE 1983REM DISCID 6708A80AREM COMMENT "ExactAudioCopy v1.0b3"PERFORMER "Comunidade S8"TITLE "Apelo A Terra"FILE "01 - Apelo A Terra.wav" WAVE  TRACK 01 AUDIO    TITLE "Apelo A Terra"    PERFORMER "Comunidade S8"    INDEX 01 00:00:00  TRACK 02 AUDIO    TITLE "Jesus E A Porta"    PERFORMER "Comunidade S8"    INDEX 00 03:16:45FILE "02 - Jesus E A Porta.wav" WAVE    INDEX 01 00:00:00  TRACK 03 AUDIO    TITLE "Jesus E A Palavra Viva"    PERFORMER "Comunidade S8"    INDEX 00 03:47:01FILE "03 - Jesus E A Palavra Viva.wav" WAVE    INDEX 01 00:00:00  TRACK 04 AUDIO    TITLE "Jesus E O Amigo"    PERFORMER "Comunidade S8"    INDEX 00 02:16:59FILE "04 - Jesus E O Amigo.wav" WAVE    INDEX 01 00:00:00  TRACK 05 AUDIO    TITLE "Jesus E A Rocha"    PERFORMER "Comunidade S8"    INDEX 00 04:22:00FILE "05 - Jesus E A Rocha.wav" WAVE    INDEX 01 00:00:00  TRACK 06 AUDIO    TITLE "Jesus E A Realidade"    PERFORMER "Comunidade S8"    INDEX 00 03:18:00FILE "06 - Jesus E A Realidade.wav" WAVE    INDEX 01 00:00:00  TRACK 07 AUDIO    TITLE "Jesus E A Salvacao"    PERFORMER "Comunidade S8"    INDEX 00 04:35:28FILE "07 - Jesus E A Salvacao.wav" WAVE    INDEX 01 00:00:00  TRACK 08 AUDIO    TITLE "Jesus Querido"    PERFORMER "Comunidade S8"    INDEX 00 04:13:31FILE "08 - Jesus Querido.wav" WAVE    INDEX 01 00:00:00  TRACK 09 AUDIO    TITLE "Jesus E O Amor"    PERFORMER "Comunidade S8"    INDEX 00 05:17:04FILE "09 - Jesus E O Amor.wav" WAVE    INDEX 01 00:00:00  TRACK 10 AUDIO    TITLE "Jesus E O Socorro"    PERFORMER "Comunidade S8"    INDEX 00 02:49:46FILE "10 - Jesus E O Socorro.wav" WAVE    INDEX 01 00:00:00

О группе

Band / concept formed in 1971 by namesake community in Santa Rosa, RJ, and since 1976 in São Gonçalo, RJ, this community dedicated to educate young people about the risks of drug abuse. Community S8 The band has released independent albums since the 1970s, including some of interest to fans of progressive rock.
www.proggnosis.com

Состав

Carlos Breder, Cláudio Fontes, Geraldo Jacob Jorge, Gerê Fontes Jr., Paulo Renato Garcia, Paulo Sérgio Fontes, Roberto Miguelote (Mig), Toney Fontes, Annelise Haase Macedo, Carla Nascimento, Lizete Damasceno, Lúcia Grael Jorge (Lu) e Magda Maldonado — Voz
Carla, Ernani, Magda e Ricardo (Rof) — Solistas
Lu, Gerê Jr. e Toney — Trio Vocal
Ernani Maldonado — Violôes 12 Cordas/Ovation/Nylon/Aço
Fred Vasconcelos — Órgão Hammond/Sint. Polysix/Piano
Toney Fernandes — Guitarra Solo
Lucia Grael Jorge — Flauta Doce Soprano
Annelise Haase Macedo — Flauta Doce Contralto
Fabio Damasceno — Flauta Baixo
Paulo Roberto Lima — Flauta Transversal
Ricardo Figueiredo (Rof) — Baixo
Namir Borges — Bateria
Mauricio Cezar da Silva — Gaita de Boca
Вы не можете начинать темы
Вы не можете отвечать на сообщения
Вы не можете редактировать свои сообщения
Вы не можете удалять свои сообщения
Вы не можете голосовать в опросах
Вы не можете прикреплять файлы к сообщениям
Вы можете скачивать файлы
!ВНИМАНИЕ!

Сайт не предоставляет электронные версии произведений, а занимается лишь коллекционированием и каталогизацией ссылок, присылаемых и публикуемых на форуме нашими читателями. Если вы являетесь правообладателем какого-либо представленного материала и не желаете, чтобы ссылка на него находилась в нашем каталоге, свяжитесь с нами, и мы незамедлительно удалим ее. Файлы для обмена на трекере предоставлены пользователями сайта, и администрация не несет ответственности за их содержание. Просьба не заливать файлы, защищенные авторскими правами, а также файлы нелегального содержания!

Искали программы, игры, дополнения, музыка mp3, аниме, аудио книги, журналы? Добро пожаловать на свободный торрент трекер Torrents, у нас можно скачать бесплатно, без смс и регистрации и прочих ограничений лучшие, отборные сборки программ, игр. Скачать торрентом не составит труда даже не опытному пользователю. Раздачи ежедневно обновляются, только лучшие и качественные раздачи, подробные описания и скриншоты. Огромная коллекция программ для работы со звуком, графикой, дизайном, а так же множество плагинов и инструментов к ним с подробной инструкцией и рекомендациями. Прошивки для навигаторов, карты. Разнообразные игры, для Windows, Linux. В коллекцие есть и старые игры любых жанров, Rpg, Action, Shooter, strategy Множество дополнений, модификаций, сценариев для популярных игр в жанре экш, рпг, гонки, стратегии, логические игры. Множество аддонов и сценариев для Microsoft Flight Simulator Большая коллекция книг, учебников. Если нет возможности купить печатное издание - смело скачивайте цифровую версию книги или, быть может, журнала. Не любите читать - можно загрузить бесплатно аудикнигу. Для веб дизайнеров и программистов так же найдется множество специализированного софта, таких как: редакторы с подсветкой, среды программирования, компоненты, системы управления базами данных, разнообразные скрипты и шаблоны. Не так давно у нас появился материал для автолюбителей и владельцев мото - оригинальные и неоригинальные каталоги запчастей, книги и журналы по ремонту и обслуживанию, видеоуроки, статьи по чип тюнингу, прошивкам. Процедура получения контента элементарная, достаточно просто скачать торрент файл и добавить его в загрузку в вашем торрент клиенте. Если у вас нет специального торрент клиента, вы можете его скачать у нас.