(Psychedelic / Prog) [CD] Demon Fuzz - Afreaka! + Single (1970), - 2004 (ARC-7074-75, Japan), FLAC (image+.cue), lossless 

Цитировать
Demon Fuzz - Afreaka! + Single
Жанр: Psychedelic / Prog
Носитель: CD
Год выпуска диска: 1970, 2004
Страна: South Africa
Производитель диска: Arcàngelo / ARC-7074/75 / Japan
Аудио кодек: FLAC
Тип рипа: image+.cue
Битрейт аудио: lossless
Продолжительность: 41:30 + 14:43
Наличие сканов в содержимом раздачи:
Состав:
Sleepy Jack Joseph / Bass
Ayinde Folarin / Congas
Paddy Corea / Congas, Flute, Saxophone
Steven John / Drums
W. Raphael Joseph / Guitar
Ray Rhoden / Organ, Piano
Clarance Brooms Crosdale/ Trombone
Smokey Adams / Vocals
Доп. информация: http://www.progarchives.com/artist.asp?id=3652

Afreaka!

Продолжительность: 41:30
Трэклист:
01. Past Present And Future (9:58)
02. Disillusioned Man (5:01)
03. Another Country (8:36)
04. Hymn To Mother Earth (8:15)
05. Mercy (Variation No. 1) (9:39)

Отчёт EAC

Exact Audio Copy V1.3 from 2. September 2016
EAC extraction logfile from 2. October 2018, 14:39
Demon Fuzz / Afreaka!
Used drive : HL-DT-STDVDRAM GUB0N Adapter: 1 ID: 0
Read mode : SecureUtilize accurate stream : YesDefeat audio cache : YesMake use of C2 pointers : No
Read offset correction : 102Overread into Lead-In and Lead-Out : NoFill up missing offset samples with silence : YesDelete leading and trailing silent blocks : NoNull samples used in CRC calculations : YesUsed interface : Native Win32 interface for Win NT & 2000
Used output format : User Defined EncoderSelected bitrate : 896 kBit/sQuality : HighAdd ID3 tag : NoCommand line compressor : D:\Programs\Exact Audio Copy\Flac\flac.exeAdditional command line options : -8 -V -T "artist=%artist%" -T "album=%albumtitle%" -T "date=%year%" -T "genre=%genre%" -T "comment=Ripped Using EAC (Secure Mode)" %source%
TOC of the extracted CD
Track | Start | Length | Start sector | End sector --------------------------------------------------------- 1 | 0:00.00 | 9:58.00 | 0 | 44849 2 | 9:58.00 | 5:01.12 | 44850 | 67436 3 | 14:59.12 | 8:36.29 | 67437 | 106165 4 | 23:35.41 | 8:15.54 | 106166 | 143344 5 | 31:51.20 | 9:39.04 | 143345 | 186773
Range status and errors
Selected range
Filename D:\MY MUSIC\### FLAC\NEW\Demon Fuzz - Afreaka!\Demon Fuzz - Afreaka!.wav
Peak level 100.0 % Extraction speed 4.1 X Range quality 99.9 % Test CRC EF01F0E4 Copy CRC EF01F0E4 Copy OK
No errors occurred
AccurateRip summary
Track 1 accurately ripped (confidence 3) [E719EDCA] (AR v2)Track 2 accurately ripped (confidence 3) [CAF43BAD] (AR v2)Track 3 accurately ripped (confidence 3) [B559BB86] (AR v2)Track 4 accurately ripped (confidence 3) [A48E406F] (AR v2)Track 5 accurately ripped (confidence 3) [D70F9924] (AR v2)
All tracks accurately ripped
End of status report
---- CUETools DB Plugin V2.1.6
[CTDB TOCID: d64xg4cr9tDQODXZDTNVQUII7y4-] foundSubmit result: d64xg4cr9tDQODXZDTNVQUII7y4- has been confirmedTrack | CTDB Status 1 | (1/1) Accurately ripped 2 | (1/1) Accurately ripped 3 | (1/1) Accurately ripped 4 | (1/1) Accurately ripped 5 | (1/1) Accurately ripped
==== Log checksum 0C25A7E751BCE9CB729E6AEBD65EA32DDDC8C505D74FEAEBF9B2715ABD923C51 ====

.cue

REM GENRE "Prog Rock"REM DATE 1975REM DISCID 2D09BA05REM COMMENT "ExactAudioCopy v1.3"PERFORMER "Demon Fuzz"TITLE "Afreaka!"REM COMPOSER ""FILE "Demon Fuzz - Afreaka!.flac" WAVE  TRACK 01 AUDIO    TITLE "Past, Present and Future"    PERFORMER "Demon Fuzz"    REM COMPOSER ""    INDEX 01 00:00:00  TRACK 02 AUDIO    TITLE "Disillusioned Man"    PERFORMER "Demon Fuzz"    REM COMPOSER ""    INDEX 01 09:58:00  TRACK 03 AUDIO    TITLE "Another Country"    PERFORMER "Demon Fuzz"    REM COMPOSER ""    INDEX 01 14:59:12  TRACK 04 AUDIO    TITLE "Hymn to Mother Earth"    PERFORMER "Demon Fuzz"    REM COMPOSER ""    INDEX 01 23:35:41  TRACK 05 AUDIO    TITLE "Mercy (Variation No. 1)"    PERFORMER "Demon Fuzz"    REM COMPOSER ""    INDEX 01 31:51:20

CueTools

[CUETools log; Date: 2018.10.15. 13:13:33; Version: 2.1.6][CTDB TOCID: d64xg4cr9tDQODXZDTNVQUII7y4-] found.Track | CTDB Status  1   | (3/3) Accurately ripped  2   | (3/3) Accurately ripped  3   | (3/3) Accurately ripped  4   | (3/3) Accurately ripped  5   | (3/3) Accurately ripped[AccurateRip ID: 00085edc-0026f8bd-2d09ba05] found.Track   [  CRC   |   V2   ] Status 01     [cb7ce9a7|e719edca] (2+3/5) Accurately ripped 02     [298b2c9f|caf43bad] (2+3/5) Accurately ripped 03     [b32a0cd3|b559bb86] (2+3/5) Accurately ripped 04     [6f01bb32|a48e406f] (2+3/5) Accurately ripped 05     [788a23ca|d70f9924] (2+3/5) Accurately ripped
Track Peak [ CRC32 ] [W/O NULL] [ LOG ] -- 100,0 [EF01F0E4] [B9B400E6] CRC32 01 100,0 [B47F4AE4] [045D1F50] 02 100,0 [9B5B2F7D] [D2C10774] 03 100,0 [904D83DA] [8389517D] 04 100,0 [F7AF4E1A] [FA9D29E8] 05 100,0 [C5A21E3A] [4A5E73C0]

Single

Продолжительность: 14:43
Трэклист:
01. I Put A Spell On You (3:59)
02. Message To Mankind (3:56)
03. Fuzz Oriental Blues (6:47)

Отчёт EAC

Exact Audio Copy V1.3 from 2. September 2016
EAC extraction logfile from 14. October 2018, 21:27
Demon Fuzz / SP
Used drive : HL-DT-STDVDRAM GUB0N Adapter: 1 ID: 0
Read mode : SecureUtilize accurate stream : YesDefeat audio cache : YesMake use of C2 pointers : No
Read offset correction : 102Overread into Lead-In and Lead-Out : NoFill up missing offset samples with silence : YesDelete leading and trailing silent blocks : NoNull samples used in CRC calculations : YesUsed interface : Native Win32 interface for Win NT & 2000
Used output format : User Defined EncoderSelected bitrate : 896 kBit/sQuality : HighAdd ID3 tag : NoCommand line compressor : D:\Programs\Exact Audio Copy\Flac\flac.exeAdditional command line options : -8 -V -T "artist=%artist%" -T "album=%albumtitle%" -T "date=%year%" -T "genre=%genre%" -T "comment=Ripped Using EAC (Secure Mode)" %source%
TOC of the extracted CD
Track | Start | Length | Start sector | End sector --------------------------------------------------------- 1 | 0:00.00 | 3:59.42 | 0 | 17966 2 | 3:59.42 | 3:56.34 | 17967 | 35700 3 | 7:56.01 | 6:47.17 | 35701 | 66242
Range status and errors
Selected range
Filename D:\MY MUSIC\### FLAC\NEW\SP\Demon Fuzz - SP.wav
Peak level 100.0 % Extraction speed 1.6 X Range quality 100.0 % Test CRC ACF4C7CC Copy CRC ACF4C7CC Copy OK
No errors occurred
AccurateRip summary
Track 1 accurately ripped (confidence 3) [1EA1AE9F] (AR v2)Track 2 accurately ripped (confidence 3) [7D073F3C] (AR v2)Track 3 accurately ripped (confidence 3) [996FFA28] (AR v2)
All tracks accurately ripped
End of status report
---- CUETools DB Plugin V2.1.6
[CTDB TOCID: JVjQTESE4lO1taDmoBICujjpeMM-] foundSubmit result: already submittedTrack | CTDB Status 1 | (2/2) Accurately ripped 2 | (2/2) Accurately ripped 3 | (2/2) Accurately ripped
==== Log checksum 2A4D9FD651676B7E7116B82F75543798619DDAD40832EB41647A4F790FFC799F ====

.cue

REM GENRE "Progressive Rock"REM DATE 1970REM DISCID 1C037303REM COMMENT "ExactAudioCopy v1.3"PERFORMER "Demon Fuzz"TITLE "SP"REM COMPOSER ""FILE "Demon Fuzz - SP.flac" WAVE  TRACK 01 AUDIO    TITLE "I Put A Spell On You"    PERFORMER "Demon Fuzz"    REM COMPOSER ""    INDEX 01 00:00:00  TRACK 02 AUDIO    TITLE "Message To Mankind"    PERFORMER "Demon Fuzz"    REM COMPOSER ""    INDEX 01 03:59:42  TRACK 03 AUDIO    TITLE "Fuzz Oriental Blues"    PERFORMER "Demon Fuzz"    REM COMPOSER ""    INDEX 01 07:56:01

CueTools

[CUETools log; Date: 2018.10.15. 13:13:50; Version: 2.1.6][CTDB TOCID: JVjQTESE4lO1taDmoBICujjpeMM-] found.Track | CTDB Status  1   | (2/2) Accurately ripped  2   | (2/2) Accurately ripped  3   | (2/2) Accurately ripped[AccurateRip ID: 0001d467-000639ca-1c037303] found.Track   [  CRC   |   V2   ] Status 01     [ed81d010|1ea1ae9f] (2+3/5) Accurately ripped 02     [0d22856e|7d073f3c] (2+3/5) Accurately ripped 03     [20bf760d|996ffa28] (2+3/5) Accurately ripped
Track Peak [ CRC32 ] [W/O NULL] [ LOG ] -- 100,0 [ACF4C7CC] [8B24F995] CRC32 01 100,0 [32320AF6] [79AB929D] 02 100,0 [C3DD186B] [734061D1] 03 100,0 [8D1AD430] [4C0F4436]
источник: Ekvilibrista
Вы не можете начинать темы
Вы не можете отвечать на сообщения
Вы не можете редактировать свои сообщения
Вы не можете удалять свои сообщения
Вы не можете голосовать в опросах
Вы не можете прикреплять файлы к сообщениям
Вы можете скачивать файлы
!ВНИМАНИЕ!

Сайт не предоставляет электронные версии произведений, а занимается лишь коллекционированием и каталогизацией ссылок, присылаемых и публикуемых на форуме нашими читателями. Если вы являетесь правообладателем какого-либо представленного материала и не желаете, чтобы ссылка на него находилась в нашем каталоге, свяжитесь с нами, и мы незамедлительно удалим ее. Файлы для обмена на трекере предоставлены пользователями сайта, и администрация не несет ответственности за их содержание. Просьба не заливать файлы, защищенные авторскими правами, а также файлы нелегального содержания!

Искали программы, игры, дополнения, музыка mp3, аниме, аудио книги, журналы? Добро пожаловать на свободный торрент трекер Torrents, у нас можно скачать бесплатно, без смс и регистрации и прочих ограничений лучшие, отборные сборки программ, игр. Скачать торрентом не составит труда даже не опытному пользователю. Раздачи ежедневно обновляются, только лучшие и качественные раздачи, подробные описания и скриншоты. Огромная коллекция программ для работы со звуком, графикой, дизайном, а так же множество плагинов и инструментов к ним с подробной инструкцией и рекомендациями. Прошивки для навигаторов, карты. Разнообразные игры, для Windows, Linux. В коллекцие есть и старые игры любых жанров, Rpg, Action, Shooter, strategy Множество дополнений, модификаций, сценариев для популярных игр в жанре экш, рпг, гонки, стратегии, логические игры. Множество аддонов и сценариев для Microsoft Flight Simulator Большая коллекция книг, учебников. Если нет возможности купить печатное издание - смело скачивайте цифровую версию книги или, быть может, журнала. Не любите читать - можно загрузить бесплатно аудикнигу. Для веб дизайнеров и программистов так же найдется множество специализированного софта, таких как: редакторы с подсветкой, среды программирования, компоненты, системы управления базами данных, разнообразные скрипты и шаблоны. Не так давно у нас появился материал для автолюбителей и владельцев мото - оригинальные и неоригинальные каталоги запчастей, книги и журналы по ремонту и обслуживанию, видеоуроки, статьи по чип тюнингу, прошивкам. Процедура получения контента элементарная, достаточно просто скачать торрент файл и добавить его в загрузку в вашем торрент клиенте. Если у вас нет специального торрент клиента, вы можете его скачать у нас.